Любите Куперов / Love the Coopers (Джесси Нельсон / Jessie Nelson) [2015, США, комедия, HDRip] (Dub)

Ответить на тему
 

Бахтиер123 ®

Стаж: 5 лет 11 месяцев

Сообщений: 72

Симпатии: 18

-Любите Куперов / Love the Coopers-Страна: США
Жанр: комедия
Год выпуска: 2015
Продолжительность: 01:47:06-Перевод: Профессиональный (полное дублирование) [iTunes]
Cубтитры: нет-Режиссер: Джесси Нельсон / Jessie Nelson-В ролях: Дайан Китон (Charlotte), Джон Гудман (Sam), Эд Хелмс (Hank), Алекс Борштейн (Angie), Тимоти Чаламет (Charlie), Максвелл Симкинс (Bo), Блейк Баумгартнер (Madison), Аманда Сайфред (Ruby), Алан Аркин (Bucky), Дэн Амбойер (Handsome Young Man at Diner), Мариса Томей (Emma), Scott Garan (Department Store Security Guard)-Описание: Феерическая рождественская комедия о том, что бывает, когда на праздник собираются представители четырех поколений одной большой семьи...- 
-Качество видео: HDRip
Формат видео: AVI
Видео: 720x304 (2.37:1), 23.976 fps, XviD build 73 ~1 551 kbps avg, 0.295 bit/pixel
Аудио: 48 kHz, AC3 Dolby Digital, 3/2 (L,C,R,l,r) + LFE ch, ~384 kbps-

MediaInfo

General
Complete name : C:\Lub1te.KyPep0B.2015.D.HDRip.1.46GB.avi
Format : AVI
Format/Info : Audio Video Interleave
File size : 1.45 GiB
Duration : 1h 47mn
Overall bit rate : 1 944 Kbps
Writing application : VirtualDubMod 1.5.10.2 (build 2540/release)
Writing library : VirtualDubMod build 2540/release
Video
ID : 0
Format : MPEG-4 Visual
Format profile : Advanced [email protected]
Format settings, BVOP : 2
Format settings, QPel : No
Format settings, GMC : No warppoints
Format settings, Matrix : Default (MPEG)
Codec ID : XVID
Codec ID/Hint : XviD
Duration : 1h 47mn
Bit rate : 1 551 Kbps
Width : 720 pixels
Height : 304 pixels
Display aspect ratio : 2.35:1
Frame rate : 23.976 fps
Color space : YUV
Chroma subsampling : 4:2:0
Bit depth : 8 bits
Scan type : Progressive
Compression mode : Lossy
Bits/(Pixel*Frame) : 0.295
Stream size : 1.16 GiB (80%)
Writing library : XviD 1.2.1 (UTC 2008-12-04)
Audio
ID : 1
Format : AC-3
Format/Info : Audio Coding 3
Mode extension : CM (complete main)
Format settings, Endianness : Big
Codec ID : 2000
Duration : 1h 47mn
Bit rate mode : Constant
Bit rate : 384 Kbps
Channel(s) : 6 channels
Channel positions : Front: L C R, Side: L R, LFE
Sampling rate : 48.0 KHz
Bit depth : 16 bits
Compression mode : Lossy
Stream size : 294 MiB (20%)
Alignment : Split accross interleaves
Interleave, duration : 42 ms (1.00 video frame)
Interleave, preload duration : 500 ms

Скриншоты





Последний раз редактировалось: Бахтиер123 (2016-02-03 02:45), всего редактировалось 1 раз

Создавать темы 02-Фев-2016 19:44

[Профиль]  [ЛС] 
Показать сообщения:    
Ответить на тему

Текущее время: 18-Дек 04:36

Часовой пояс: UTC + 5



Вы не можете начинать темы
Вы не можете отвечать на сообщения
Вы не можете редактировать свои сообщения
Вы не можете удалять свои сообщения
Вы не можете голосовать в опросах
Вы не можете прикреплять файлы к сообщениям
Вы не можете скачивать файлы