Морпехи 3: В осаде / Jarhead 3: The Siege (Уильям Кауфман) [2016, США, боевик, военный, HDRip] (Dub)

Ответить на тему
 

atgerkin ®

Стаж: 6 лет 9 месяцев

Сообщений: 247

Симпатии: 78

Морпехи 3: В осаде / Jarhead 3: The Siege-- Страна: США
Жанр: боевик, военный
Год выпуска: 2016
Продолжительность: 01:28:59-Перевод: Дублированный [Лицензия]
Cубтитры: нет
Режиссер: Уильям Кауфман-В ролях: Чарли Вебер, Скотт Эдкинс, Том Эйнсли, Эрик Валдез, Данте Баско, Саша Джексон, Деннис Хейсбёрт, Стефен Хоган, Джо Корригалл, Адриан Ховард-Описание: Отряду морских пехотинцев, чья миссия - защита посольства США в одной из ближневосточных стран, приходится отражать внезапную атаку противника.-Доп. информация:
 
-Качество видео: HDRip
Формат видео: AVI-Видео: XviD, 1742 kb/s, 720x304
Аудио: AC3, 448 kb/s (6 ch)

MediaInfo

General
Complete name : C:\Downloads\MorPeH1.III.2016.D.HDRip.14OOMB.avi
Format : AVI
Format/Info : Audio Video Interleave
File size : 1.37 GiB
Duration : 1h 28mn
Overall bit rate : 2 199 Kbps
Writing application : VirtualDubMod 1.5.10.2 (build 2540/release)
Writing library : VirtualDubMod build 2540/release
Video
ID : 0
Format : MPEG-4 Visual
Format profile : Advanced [email protected]
Format settings, BVOP : 2
Format settings, QPel : No
Format settings, GMC : No warppoints
Format settings, Matrix : Default (MPEG)
Codec ID : XVID
Codec ID/Hint : XviD
Duration : 1h 28mn
Bit rate : 1 742 Kbps
Width : 720 pixels
Height : 304 pixels
Display aspect ratio : 2.35:1
Frame rate : 23.976 fps
Color space : YUV
Chroma subsampling : 4:2:0
Bit depth : 8 bits
Scan type : Progressive
Compression mode : Lossy
Bits/(Pixel*Frame) : 0.332
Stream size : 1.08 GiB (79%)
Writing library : XviD 1.2.1 (UTC 2008-12-04)
Audio
ID : 1
Format : AC-3
Format/Info : Audio Coding 3
Mode extension : CM (complete main)
Format settings, Endianness : Big
Codec ID : 2000
Duration : 1h 28mn
Bit rate mode : Constant
Bit rate : 448 Kbps
Channel(s) : 6 channels
Channel positions : Front: L C R, Side: L R, LFE
Sampling rate : 48.0 KHz
Bit depth : 16 bits
Compression mode : Lossy
Stream size : 285 MiB (20%)
Alignment : Split accross interleaves
Interleave, duration : 42 ms (1.00 video frame)
Interleave, preload duratio : 500 ms
Скриншоты

Создавать темы 03-Фев-2016 04:19

[Профиль]  [ЛС] 

vulkan

Стаж: 5 лет

Сообщений: 11

Симпатии: 5

хоть кто что нить писал стоит ли ?

Создавать темы 11-Фев-2016 20:46

[Профиль]  [ЛС] 

pct

Стаж: 6 лет 7 месяцев

Сообщений: 120

Симпатии: 12

Только первую часть - остальное дешёвый кал.

Создавать темы 13-Фев-2016 17:07

[Профиль]  [ЛС] 

Abu_Rdk

Стаж: 4 года 4 месяца

Сообщений: 4

дайте скоросты

Создавать темы 27-Фев-2016 18:38

[Профиль]  [ЛС] 

tasyan

Стаж: 6 лет 5 месяцев

Сообщений: 5

Симпатии: 1

нормальный фильмец

Создавать темы 11-Мар-2016 22:00

[Профиль]  [ЛС] 

NeXuS155

Стаж: 6 лет 5 месяцев

Сообщений: 8

хороший фильмец

Создавать темы 13-Мар-2016 19:04

[Профиль]  [ЛС] 
Показать сообщения:    
Ответить на тему

Текущее время: 26-Сен 08:43

Часовой пояс: UTC + 5



Вы не можете начинать темы
Вы не можете отвечать на сообщения
Вы не можете редактировать свои сообщения
Вы не можете удалять свои сообщения
Вы не можете голосовать в опросах
Вы не можете прикреплять файлы к сообщениям
Вы не можете скачивать файлы