Дочь Бога / Exposed (Деклан Дэйл) [2016, США, драма, WEB-DLRip] (DVO)

Страницы :  1, 2  След.

Ответить на тему
 

ruhal ®

Стаж: 2 года 7 месяцев

Сообщений: 1181

Симпатии: 1836

-Дочь Бога / Exposed- -Страна: США
Жанр: драма
Год выпуска: 2016
Продолжительность: 01:42:42-Перевод: Любительский (двухголосый)
Cубтитры: нет-Режиссер:Деклан Дэйл-В ролях: Киану Ривз, Мира Сорвино, Ана де Армас, Лаура Гомез, Кристофер МакДональд,
Дэнни Хоч, Исмаэль Круз, Биг Дэдди Кэйн, Клара Вонг-Описание: Сюжетная картина разворачивается во круг женщины, в жизни которой произошло не бывалое чудо,
и оно осчастливило главную героиню фильма. Но после этого в ее жизни начинают происходить очень странные и необъяснимые вещи.
В тот момент, когда она разбирается в этом всем, сюжет затрагивает еще одного главного героя фильма «Дочь Бога».
Речь пойдет о полицейском детективе, который остался без товарища и коллеги.
Он погиб по очень загадочным причинам, в которые очень мало вериться главному герою.
Именно поэтому он решает разъяснить эту странную ситуацию и найти настоящую причину смерти его друга.-Качество видео: WEB-DLRip
Формат видео: AVI
Видео: Xvid 720x304 23.976fps 1874kbps
Аудио: Dolby AC3 48000Hz stereo 128kbps
-

MediaInfo

General
Complete name : E:\Films\Do4.B0Ga.2016.L2.WEB-DLRip.1.45GB.avi
Format : AVI
Format/Info : Audio Video Interleave
File size : 1.44 GiB
Duration : 1h 42mn
Overall bit rate : 2 012 Kbps
Writing application : VirtualDubMod 1.5.10.3 | www.virtualdub-fr.org || (build 2550/release)
Writing library : VirtualDubMod build 2550/release
Video
ID : 0
Format : MPEG-4 Visual
Format profile : Advanced [email protected]
Format settings, BVOP : 2
Format settings, QPel : No
Format settings, GMC : No warppoints
Format settings, Matrix : Default (MPEG)
Codec ID : XVID
Codec ID/Hint : XviD
Duration : 1h 42mn
Bit rate : 1 875 Kbps
Width : 720 pixels
Height : 304 pixels
Display aspect ratio : 2.35:1
Frame rate : 23.976 fps
Color space : YUV
Chroma subsampling : 4:2:0
Bit depth : 8 bits
Scan type : Progressive
Compression mode : Lossy
Bits/(Pixel*Frame) : 0.357
Stream size : 1.34 GiB (93%)
Writing library : XviD 1.2.1 (UTC 2008-12-04)
Audio
ID : 1
Format : AC-3
Format/Info : Audio Coding 3
Mode extension : CM (complete main)
Format settings, Endianness : Big
Codec ID : 2000
Duration : 1h 42mn
Bit rate mode : Constant
Bit rate : 128 Kbps
Channel(s) : 2 channels
Channel positions : Front: L R
Sampling rate : 48.0 KHz
Bit depth : 16 bits
Compression mode : Lossy
Stream size : 93.8 MiB (6%)
Alignment : Split accross interleaves
Interleave, duration : 42 ms (1.00 video frame)
Interleave, preload duration : 500 ms

Скриншот c названием фильма

Скриншоты





Последний раз редактировалось: ruhal (2016-04-02 13:54), всего редактировалось 2 раз(а)

Создавать темы 03-Фев-2016 04:55

[Профиль]  [ЛС] 

жавохир

Стаж: 7 лет 4 месяца

Сообщений: 20

Симпатии: 4

Чет Ривз в этом фильме слишком постарел

Комментарий от ruhal


ну так человеку все таки 51 год

Создавать темы 03-Фев-2016 09:23

[Профиль]  [ЛС] 

ToTi

Стаж: 6 лет 10 месяцев

Сообщений: 3

Симпатии: 1

51 круто круто не знал даже))))

Создавать темы 03-Фев-2016 18:14

[Профиль]  [ЛС] 

taks

Стаж: 5 лет 3 месяца

Сообщений: 44

Симпатии: 10

Как 51!? Он же вот только вчера в матрице снялся ... ?!

Создавать темы 03-Фев-2016 19:05

[Профиль]  [ЛС] 

vulkan

Стаж: 5 лет 2 месяца

Сообщений: 11

Симпатии: 5

не видите всякие кремы выпускают против маршин по 9 часов?А так актёр хорош смотрится

Создавать темы 09-Фев-2016 10:29

[Профиль]  [ЛС] 

pct

Стаж: 6 лет 10 месяцев

Сообщений: 120

Симпатии: 12

В каком же ещё говнище снимется Киянка?

Создавать темы 13-Фев-2016 17:38

[Профиль]  [ЛС] 

tech

Стаж: 7 лет 2 месяца

Сообщений: 24

Симпатии: 1

Да : )

Создавать темы 14-Фев-2016 18:35

[Профиль]  [ЛС] 

vulkan

Стаж: 5 лет 2 месяца

Сообщений: 11

Симпатии: 5

пустая трата времени

Создавать темы 15-Фев-2016 23:06

[Профиль]  [ЛС] 

outoforder

Стаж: 5 лет

Сообщений: 812

Симпатии: 172

В каком же ещё говнище снимется Киянка?
все настолько плохо?

Создавать темы 23-Фев-2016 09:11

[Профиль]  [ЛС] 

Dik97

Стаж: 4 года 10 месяцев

Сообщений: 3

Симпатии: 3

fuflo

Создавать темы 25-Фев-2016 18:00

[Профиль]  [ЛС] 

Bekzod_gulim

Стаж: 7 лет 5 месяцев

Сообщений: 41

Симпатии: 5

гамно

Создавать темы 03-Мар-2016 15:10

[Профиль]  [ЛС] 

Никита

Стаж: 6 лет 11 месяцев

Сообщений: 10

Симпатии: 2

966530Как 51!? Он же вот только вчера в матрице снялся ... ?!
Не вчера, а позавчера!)

Создавать темы 05-Мар-2016 21:05

[Профиль]  [ЛС] 

Benchmark

Стаж: 5 лет 8 месяцев

Сообщений: 49

Симпатии: 4

о боже фильм такой скучный

Создавать темы 06-Мар-2016 18:22

[Профиль]  [ЛС] 

Xomid

Стаж: 6 лет 6 месяцев

Сообщений: 34

Симпатии: 4

эта фильм или что эта ? сам незнаю

Создавать темы 09-Мар-2016 16:04

[Профиль]  [ЛС] 

_PAPA_

Стаж: 5 лет 5 месяцев

Сообщений: 26

Симпатии: 2

Блин чёто скорость маленькая. Странно както раньше токого небыло

Создавать темы 09-Мар-2016 22:08

[Профиль]  [ЛС] 
Показать сообщения:    
Ответить на тему

Текущее время: 11-Дек 21:52

Часовой пояс: UTC + 5



Вы не можете начинать темы
Вы не можете отвечать на сообщения
Вы не можете редактировать свои сообщения
Вы не можете удалять свои сообщения
Вы не можете голосовать в опросах
Вы не можете прикреплять файлы к сообщениям
Вы не можете скачивать файлы