Гавана, я люблю тебя / 7 dias en La Habana / 7 Days in Havana (Бенисио Дель Торо, Пабло Траперо, Элиа Сулейман, Хулио Медем, Гаспар Ноэ, Хуан Карлос Табио, Лоран Канте) [2012, Франция, Испания, Драма, DVDRip] (Dub) (Original Spa)

Ответить на тему
 

pirat ®

Стаж: 5 лет 6 месяцев

Сообщений: 216

Симпатии: 63


-Гавана, я люблю тебя / 7 dias en La Habana / 7 Days in Havana-Страна: Франция, Испания
Жанр: Драма
Год выпуска: 2012
Продолжительность: 02:03:33
Перевод: Профессиональный (дублированный)
Cубтитры: нет
Оригинальная аудиодорожка: испанский-Режиссер: Бенисио Дель Торо, Пабло Траперо, Элиа Сулейман, Хулио Медем, Гаспар Ноэ, Хуан Карлос Табио, Лоран Канте-В ролях: Даниэль Брюль, Эмир Кустурица, Элиа Сулейман, Джош Хатчерсон, Владимир Крус, Мирта Ибарра, Хорхе Перугоррия, Мелвиз Санта Эстевес, Дэйзи Гранадос, Луис Альберто Гарсия-Описание: Мастера мирового авторского кино сняли 7 маленьких увлекательных историй, действие которых происходит в Гаване.- -Качество видео: DVDRip
Формат видео: AVI
Видео: XviD , размер кадра: 720x384 , битрейт: 1 880 кб/с
Аудио: русский , дублированный (дубляж ) , аудиокодек : AC3 5.1, битрейт аудио : 448 кб/с
Аудио 2: русский , перевод : многоголосый закадровый, аудиокодек : AC3 5.1, битрейт аудио : 448 кб/с
Аудио 3: испанский , перевод : ( оригинал), аудиокодек : AC3 5.1, битрейт аудио : 448 кб/с

-

MediaInfo

General
Complete name : E:\Torrent\Qtorrent\7 Days in Havana (Laurent Cantet, Benicio Del Toro, Julio Medem, ..... 2012) DVDRip (2Rus, Spa).avi
Format : AVI
Format/Info : Audio Video Interleave
Format profile : OpenDML
File size : 2.80 GiB
Duration : 2h 3mn
Overall bit rate : 3 246 Kbps
Movie name : 7 Days in Havana (Laurent Cantet, Benicio Del Toro, Julio Medem, ..... 2012) DVDRip (2Rus, Ita)
Director : Maksmet
Writing application : VirtualDubModRus 1.5.10.2 (build 2542/release)
Original source form/Name : Movie
Comment : 12.09.2012
Video
ID : 0
Format : MPEG-4 Visual
Format profile : Advanced [email protected]
Format settings, BVOP : 2
Format settings, QPel : No
Format settings, GMC : No warppoints
Format settings, Matrix : Default (MPEG)
Codec ID : XVID
Codec ID/Hint : XviD
Duration : 2h 3mn
Bit rate : 1 880 Kbps
Width : 720 pixels
Height : 384 pixels
Display aspect ratio : 1.85:1
Frame rate : 25.000 fps
Color space : YUV
Chroma subsampling : 4:2:0
Bit depth : 8 bits
Scan type : Progressive
Compression mode : Lossy
Bits/(Pixel*Frame) : 0.272
Stream size : 1.62 GiB (58%)
Writing library : XviD 65
Audio #1
ID : 1
Format : AC-3
Format/Info : Audio Coding 3
Mode extension : CM (complete main)
Format settings, Endianness : Big
Codec ID : 2000
Duration : 2h 3mn
Bit rate mode : Constant
Bit rate : 448 Kbps
Channel(s) : 6 channels
Channel positions : Front: L C R, Side: L R, LFE
Sampling rate : 48.0 KHz
Compression mode : Lossy
Stream size : 396 MiB (14%)
Alignment : Split accross interleaves
Interleave, duration : 40 ms (1.00 video frame)
Interleave, preload duration : 500 ms
Audio #2
ID : 2
Format : AC-3
Format/Info : Audio Coding 3
Mode extension : CM (complete main)
Format settings, Endianness : Big
Codec ID : 2000
Duration : 2h 3mn
Bit rate mode : Constant
Bit rate : 448 Kbps
Channel(s) : 6 channels
Channel positions : Front: L C R, Side: L R, LFE
Sampling rate : 48.0 KHz
Compression mode : Lossy
Stream size : 396 MiB (14%)
Alignment : Split accross interleaves
Interleave, duration : 40 ms (1.00 video frame)
Interleave, preload duration : 500 ms
Audio #3
ID : 3
Format : AC-3
Format/Info : Audio Coding 3
Mode extension : CM (complete main)
Format settings, Endianness : Big
Codec ID : 2000
Duration : 2h 3mn
Bit rate mode : Constant
Bit rate : 448 Kbps
Channel(s) : 6 channels
Channel positions : Front: L C R, Side: L R, LFE
Sampling rate : 48.0 KHz
Compression mode : Lossy
Stream size : 396 MiB (14%)
Alignment : Split accross interleaves
Interleave, duration : 40 ms (1.00 video frame)
Interleave, preload duration : 500 ms
- -усиленный труд мозга и тела за маленькое спасибо!


Последний раз редактировалось: pirat (2016-02-03 17:29), всего редактировалось 2 раз(а)

Создавать темы 03-Фев-2016 15:35

[Профиль]  [ЛС] 

Powered by GMC

Стаж: 2 года

Сообщений: 202

Симпатии: 31

скринь залейте вполном

Комментарий от ruhal


Нажми на них и будет "вполном"

Создавать темы 03-Фев-2016 17:03

[Профиль]  [ЛС] 

Sara

Стаж: 4 года 11 месяцев

Сообщений: 48

Симпатии: 10

ВЕРНИТЕСЬ НА РАЗДАЧУ, УЖЕ ЦЕЛЫЙ ДЕНЬ КАЧАЮ

Создавать темы 05-Мар-2016 22:11

[Профиль]  [ЛС] 

kalibro0909

Стаж: 1 год 10 месяцев

Сообщений: 2

привет всем

Создавать темы 25-Июн-2016 23:37

[Профиль]  [ЛС] 
Показать сообщения:    
Ответить на тему

Текущее время: 22-Окт 19:00

Часовой пояс: UTC + 5



Вы не можете начинать темы
Вы не можете отвечать на сообщения
Вы не можете редактировать свои сообщения
Вы не можете удалять свои сообщения
Вы не можете голосовать в опросах
Вы не можете прикреплять файлы к сообщениям
Вы не можете скачивать файлы