Отступление / Backtrack (Майкл Петрони) [2015, Австралия, триллер, детектив, WEB-DLRip]DVO [Parovoz Production] [Original Eng]

Ответить на тему
 

ruhal ®

Стаж: 2 года 5 месяцев

Сообщений: 1181

Симпатии: 1836

- -Отступление / Backtrack-
Страна: Австралия
Жанр: триллер, детектив
Год выпуска: 2015
Продолжительность: 01:26:06-Перевод: Любительский (двухголосый) [Parovoz Production]
Cубтитры: нет
Оригинальная аудиодорожка: английский-Режиссер: Майкл Петрони-В ролях: Эдриан Броуди, Сэм Нилл, Брюс Спенс, Робин МакЛиви,
Дженни Бейрд, Анна Лизе Филлипс, Хлоя Бэйлисс, Ольга Миллер, Малкольм Кеннард-Описание: Жизнь психолога Питера Бауэрса меняется не в лучшую сторону,
когда он понимает, что его пациенты — призраки людей, умерших в результате несчастного случая 20 лет назад.
Боясь сойти с ума, Питер возвращается в свой родной город, где раскрывает ужасающую правду, которую может исправить только он.-Качество видео: WEB-DLRip
Формат видео: AVI
Видео: Xvid 720x304 25fps 1808kbps
Аудио: Dolby AC3 48000Hz stereo 192kbps[Rus]
Аудио 2: Dolby AC3 48000Hz 6ch 384kbps[Eng]
-

MediaInfo

General
Complete name : E:\Films\0tStuPleN1e.2015.L2.WEB-DLRip.1.45GB.avi
Format : AVI
Format/Info : Audio Video Interleave
File size : 1.45 GiB
Duration : 1h 26mn
Overall bit rate : 2 399 Kbps
Writing application : VirtualDubMod 1.5.10.3 | www.virtualdub-fr.org || (build 2550/release)
Writing library : VirtualDubMod build 2550/release
Video
ID : 0
Format : MPEG-4 Visual
Format profile : Advanced Simple@L5
Format settings, BVOP : 2
Format settings, QPel : No
Format settings, GMC : No warppoints
Format settings, Matrix : Default (MPEG)
Codec ID : XVID
Codec ID/Hint : XviD
Duration : 1h 26mn
Bit rate : 1 808 Kbps
Width : 720 pixels
Height : 304 pixels
Display aspect ratio : 2.35:1
Frame rate : 25.000 fps
Color space : YUV
Chroma subsampling : 4:2:0
Bit depth : 8 bits
Scan type : Progressive
Compression mode : Lossy
Bits/(Pixel*Frame) : 0.330
Stream size : 1.09 GiB (75%)
Writing library : XviD 1.2.1 (UTC 2008-12-04)
Audio #1
ID : 1
Format : AC-3
Format/Info : Audio Coding 3
Mode extension : CM (complete main)
Format settings, Endianness : Big
Codec ID : 2000
Duration : 1h 26mn
Bit rate mode : Constant
Bit rate : 192 Kbps
Channel(s) : 2 channels
Channel positions : Front: L R
Sampling rate : 48.0 KHz
Bit depth : 16 bits
Compression mode : Lossy
Stream size : 119 MiB (8%)
Alignment : Split accross interleaves
Interleave, duration : 40 ms (1.00 video frame)
Interleave, preload duration : 500 ms
Audio #2
ID : 2
Format : AC-3
Format/Info : Audio Coding 3
Mode extension : CM (complete main)
Format settings, Endianness : Big
Codec ID : 2000
Duration : 1h 26mn
Bit rate mode : Constant
Bit rate : 384 Kbps
Channel(s) : 6 channels
Channel positions : Front: L C R, Side: L R, LFE
Sampling rate : 48.0 KHz
Bit depth : 16 bits
Compression mode : Lossy
Stream size : 237 MiB (16%)
Alignment : Split accross interleaves
Interleave, duration : 40 ms (1.00 video frame)
Interleave, preload duration : 500 ms

Скриншот c названием фильма

Скриншоты



Создавать темы 04-Фев-2016 05:43

[Профиль]  [ЛС] 
Показать сообщения:    
Ответить на тему

Текущее время: 22-Сен 07:27

Часовой пояс: UTC + 5



Вы не можете начинать темы
Вы не можете отвечать на сообщения
Вы не можете редактировать свои сообщения
Вы не можете удалять свои сообщения
Вы не можете голосовать в опросах
Вы не можете прикреплять файлы к сообщениям
Вы не можете скачивать файлы