Рабочий класс идёт в рай / La classe operaia va in paradiso (Элио Петри) [1971, Италия, драма, DVDRip] AVO (Владимир Штейн) + Sub (Rus) + Original (Ita)

Ответить на тему
 

lotto ®

Стаж: 7 лет 8 месяцев

Сообщений: 221

Симпатии: 409

Рабочий класс идёт в рай / La classe operaia va in paradiso-- Страна: Италия
Жанр: драма
Год выпуска: 1971
Продолжительность: 01:50:34
Перевод: Авторский (одноголосый закадровый) Владимир Штейн
Cубтитры: русские
Оригинальная аудиодорожка: итальянский--Режиссер: Элио Петри
В ролях: Джан Мария Волонте, Марианджела Мелато, Джино Перниче, Сальво Рандоне, Луиджи Диберти, Донато Кастелланета, Коррадо Солари, Флавио Буччи, Луиджи Уццо, Джованни Биньямини--Описание: Гротесковый памфлет о рабочем парне, простаке, за душу и тело которого борются леваки и революционеры, с одной стороны, и заводские власти, мечтающие о порядке, — с другой.-- --Качество видео: DVDRip
Формат видео: AVI
Видео: XviD, 720x384, 25 fps, 1491 kbps
Аудио: AC3, 48 kHz, 2 ch, 192 kbps (русский, одноголосый)
Аудио 2: AC3, 48 kHz, 2 ch, 192 kbps (оригинал)

MediaInfo

General
Complete name : La.classe.operaia.va.in.paradiso.1971.dvdrip_[1.46].avi
Format : AVI
Format/Info : Audio Video Interleave
File size : 1.46 GiB
Duration : 1h 50mn
Overall bit rate : 1 889 Kbps
Writing application : VirtualDubMod 1.5.10.2 (build 2540/release)
Writing library : VirtualDubMod build 2540/release
Video
ID : 0
Format : MPEG-4 Visual
Format profile : Advanced [email protected]
Format settings, BVOP : 1
Format settings, QPel : No
Format settings, GMC : No warppoints
Format settings, Matrix : Custom
Codec ID : XVID
Codec ID/Hint : XviD
Duration : 1h 50mn
Bit rate : 1 491 Kbps
Width : 720 pixels
Height : 384 pixels
Display aspect ratio : 1.85:1
Frame rate : 25.000 fps
Color space : YUV
Chroma subsampling : 4:2:0
Bit depth : 8 bits
Scan type : Progressive
Compression mode : Lossy
Bits/(Pixel*Frame) : 0.216
Stream size : 1.15 GiB (79%)
Writing library : XviD 1.2.1 (UTC 2008-12-04)
Audio #1
ID : 1
Format : AC-3
Format/Info : Audio Coding 3
Mode extension : CM (complete main)
Format settings, Endianness : Big
Codec ID : 2000
Duration : 1h 50mn
Bit rate mode : Constant
Bit rate : 192 Kbps
Channel(s) : 2 channels
Channel positions : Front: L R
Sampling rate : 48.0 KHz
Frame rate : 31.250 fps (1536 spf)
Compression mode : Lossy
Stream size : 152 MiB (10%)
Alignment : Split accross interleaves
Interleave, duration : 40 ms (1.00 video frame)
Interleave, preload duratio : 500 ms
Audio #2
ID : 2
Format : AC-3
Format/Info : Audio Coding 3
Mode extension : CM (complete main)
Format settings, Endianness : Big
Codec ID : 2000
Duration : 1h 50mn
Bit rate mode : Constant
Bit rate : 192 Kbps
Channel(s) : 2 channels
Channel positions : Front: L R
Sampling rate : 48.0 KHz
Frame rate : 31.250 fps (1536 spf)
Compression mode : Lossy
Stream size : 152 MiB (10%)
Alignment : Split accross interleaves
Interleave, duration : 40 ms (1.00 video frame)
Interleave, preload duratio : 500 ms

Скриншот c названием фильма

Скриншоты





Создавать темы 04-Фев-2016 10:41

[Профиль]  [ЛС] 
Показать сообщения:    
Ответить на тему

Текущее время: 24-Сен 06:34

Часовой пояс: UTC + 5



Вы не можете начинать темы
Вы не можете отвечать на сообщения
Вы не можете редактировать свои сообщения
Вы не можете удалять свои сообщения
Вы не можете голосовать в опросах
Вы не можете прикреплять файлы к сообщениям
Вы не можете скачивать файлы