Рождественская ночь в Барселоне / Barcelona, nit d'hivern (Дани де ла Орден / Dani de la Orden) [2015, Испания, мелодрама, WEB-DLRip] (Dub)

Ответить на тему
 

ladysco ®

Стаж: 5 лет 4 месяца

Сообщений: 40

Симпатии: 56

Рождественская ночь в Барселоне / Barcelona, nit d'hivern
Страна: Испания
Жанр: мелодрама
Год выпуска: 2015
Продолжительность: 01:44:41
Перевод: Профессиональный (дублированный)
Режиссер: Дани де ла Орден / Dani de la Orden
В ролях: Алекс Маруни, Виктория Луэнго, Александра Хименес, Айна Клотет, Абель Фольк, Альберто Сан Хуан, Алекс Моннер, Берто Ромеро, Клара Сегура
Описание: Магия любовных переживаний царит в Барселоне не только в знойные летние ночи, но и в волшебную зимнюю пору. Семейные пары и одинокие сердца, юные романтики и почтенные сеньоры, загадочные красотки и парни «что надо» в разгар рождественских торжеств переживают радость и горечь любви, теряют и обретают свое счастье. Их истории складываются в картину увлекательной жизни прекрасного города, который в Рождественскую ночь живет в ожидании чуда.
Качество видео: WEB-DLRip
Формат видео: AVI
Видео: XviD, 720x304, 24.000 fps, 1065 kbps, 0.305 bit/pixel
Аудио: AC-3, 48.0 kHz, 6 ch, 384 kbps
- -

MediaInfo

Format : AVI
Format/Info : Audio Video Interleave
File size : 1.46 GiB
Duration : 1h 44mn
Overall bit rate : 1 998 Kbps
Writing application : VirtualDubMod 1.5.10.3 | www.virtualdub-fr.org || (build 2550/release)
Writing library : VirtualDubMod build 2550/release
Video
ID : 0
Format : MPEG-4 Visual
Format profile : Advanced [email protected]
Format settings, BVOP : 2
Format settings, QPel : No
Format settings, GMC : No warppoints
Format settings, Matrix : Default (MPEG)
Codec ID : XVID
Codec ID/Hint : XviD
Duration : 1h 44mn
Bit rate : 1 605 Kbps
Width : 720 pixels
Height : 304 pixels
Display aspect ratio : 2.35:1
Frame rate : 24.000 fps
Color space : YUV
Chroma subsampling : 4:2:0
Bit depth : 8 bits
Scan type : Progressive
Compression mode : Lossy
Bits/(Pixel*Frame) : 0.305
Stream size : 1.17 GiB (80%)
Writing library : XviD 1.2.1 (UTC 2008-12-04)
Audio
ID : 1
Format : AC-3
Format/Info : Audio Coding 3
Mode extension : CM (complete main)
Format settings, Endianness : Big
Codec ID : 2000
Duration : 1h 44mn
Bit rate mode : Constant
Bit rate : 384 Kbps
Channel(s) : 6 channels
Channel positions : Front: L C R, Side: L R, LFE
Sampling rate : 48.0 KHz
Bit depth : 16 bits
Compression mode : Lossy
Stream size : 288 MiB (19%)
Alignment : Split accross interleaves
Interleave, duration : 42 ms (1.00 video frame)
Interleave, preload duration : 500 ms

Скриншоты

Создавать темы 04-Фев-2016 14:29

[Профиль]  [ЛС] 
Показать сообщения:    
Ответить на тему

Текущее время: 19-Ноя 21:14

Часовой пояс: UTC + 5



Вы не можете начинать темы
Вы не можете отвечать на сообщения
Вы не можете редактировать свои сообщения
Вы не можете удалять свои сообщения
Вы не можете голосовать в опросах
Вы не можете прикреплять файлы к сообщениям
Вы не можете скачивать файлы