INNA - Diggy Down, 2014, America, House & Dance, HDRip-AVC

Ответить на тему
 

ИЛЬЯС АЛЛАЯРОВ ®

Стаж: 2 года 6 месяцев

Сообщений: 13

Симпатии: 2

INNA - Diggy Down
- Жанр: House & Dance
Год выпуска: 2014
Продолжительность: 00:03:26
Качество видео: HDRip-AVC
Формат видео: MP4
Видео: MPEG4 Video (H264) 1280x720 25fps 1923kbps [Video]
Аудио: AAC 44100Hz stereo 191kbps [Audio]

MediaInfo

Format : MPEG-4
Format profile : Base Media / Version 2
Codec ID : mp42
File size : 52.3 MiB
Duration : 3mn 26s
Overall bit rate mode : Variable
Overall bit rate : 2 118 Kbps
Encoded date : UTC 2014-12-09 09:55:34
Tagged date : UTC 2014-12-09 09:55:34
gsst : 0
gstd : 207028
gssd : CwiHH1418185743872880
gshh : r7---sn-5hn7snls.googlevideo.com
Video
ID : 1
Format : AVC
Format/Info : Advanced Video Codec
Format profile : [email protected]
Format settings, CABAC : Yes
Format settings, ReFrames : 1 frame
Codec ID : avc1
Codec ID/Info : Advanced Video Coding
Duration : 3mn 26s
Bit rate : 1 924 Kbps
Maximum bit rate : 10.2 Mbps
Width : 1 280 pixels
Height : 720 pixels
Display aspect ratio : 16:9
Frame rate mode : Constant
Frame rate : 25.000 fps
Color space : YUV
Chroma subsampling : 4:2:0
Bit depth : 8 bits
Scan type : Progressive
Bits/(Pixel*Frame) : 0.083
Stream size : 47.5 MiB (91%)
Tagged date : UTC 2014-12-09 09:55:35
Audio
ID : 2
Format : AAC
Format/Info : Advanced Audio Codec
Format profile : LC
Codec ID : 40
Duration : 3mn 26s
Bit rate mode : Variable
Bit rate : 192 Kbps
Maximum bit rate : 201 Kbps
Channel(s) : 2 channels
Channel positions : Front: L R
Sampling rate : 44.1 KHz
Compression mode : Lossy
Stream size : 4.74 MiB (9%)
Title : IsoMedia File Produced by Google, 5-11-2011
Encoded date : UTC 2014-12-09 09:55:35
Tagged date : UTC 2014-12-09 09:55:35

Скриншоты





Последний раз редактировалось: ИЛЬЯС АЛЛАЯРОВ (2016-02-04 19:06), всего редактировалось 1 раз

Создавать темы 04-Фев-2016 15:34

[Профиль]  [ЛС] 
Показать сообщения:    
Ответить на тему

Текущее время: 18-Ноя 20:58

Часовой пояс: UTC + 5



Вы не можете начинать темы
Вы не можете отвечать на сообщения
Вы не можете редактировать свои сообщения
Вы не можете удалять свои сообщения
Вы не можете голосовать в опросах
Вы не можете прикреплять файлы к сообщениям
Вы не можете скачивать файлы