INNA - Calienta es tu AMOR, 2012, America, Pop,Dance, HD

Ответить на тему
 

ИЛЬЯС АЛЛАЯРОВ ®

Стаж: 2 года 4 месяца

Сообщений: 13

Симпатии: 2

INNA - Calienta es tu AMOR- Жанр: Pop ,Dance
Год выпуска: 2012
Продолжительность: 00:03:28
Качество видео: HD
Формат видео: MP4
Видео: MPEG4 Video (H264) 1920x1080 25.333fps 5816kbps [Video]
Аудио: AAC 44100Hz stereo 148kbps [Audio]

MediaInfo

Format : MPEG-4
Format profile : Base Media / Version 2
Codec ID : mp42
File size : 148 MiB
Duration : 3mn 28s
Overall bit rate mode : Variable
Overall bit rate : 5 967 Kbps
Encoded date : UTC 2012-05-12 22:11:45
Tagged date : UTC 2012-05-12 22:11:45
gsst : 0
gstd : 208793
gssd : BADC23E62HH1337029163135472
gshh : o-o.preferred.fra02s01.v17.lscache8.c.youtube.com
Video
ID : 1
Format : AVC
Format/Info : Advanced Video Codec
Format profile : High@L4.0
Format settings, CABAC : Yes
Format settings, ReFrames : 1 frame
Codec ID : avc1
Codec ID/Info : Advanced Video Coding
Duration : 3mn 28s
Bit rate : 5 816 Kbps
Maximum bit rate : 16.1 Mbps
Width : 1 920 pixels
Height : 1 080 pixels
Display aspect ratio : 16:9
Frame rate mode : Variable
Frame rate : 25.307 fps
Minimum frame rate : 16.889 fps
Maximum frame rate : 25.333 fps
Color space : YUV
Chroma subsampling : 4:2:0
Bit depth : 8 bits
Scan type : Progressive
Bits/(Pixel*Frame) : 0.111
Stream size : 145 MiB (97%)
Tagged date : UTC 2012-05-12 22:11:45
Audio
ID : 2
Format : AAC
Format/Info : Advanced Audio Codec
Format profile : LC
Codec ID : 40
Duration : 3mn 28s
Bit rate mode : Variable
Bit rate : 148 Kbps
Maximum bit rate : 216 Kbps
Channel(s) : 2 channels
Channel positions : Front: L R
Sampling rate : 44.1 KHz
Compression mode : Lossy
Stream size : 3.69 MiB (2%)
Title : IsoMedia File Produced by Google, 5-11-2011
Encoded date : UTC 2012-05-12 22:11:45
Tagged date : UTC 2012-05-12 22:11:45

Скриншоты





Последний раз редактировалось: ИЛЬЯС АЛЛАЯРОВ (2016-02-04 19:01), всего редактировалось 2 раз(а)

Создавать темы 04-Фев-2016 15:55

[Профиль]  [ЛС] 
Показать сообщения:    
Ответить на тему

Текущее время: 24-Сен 02:57

Часовой пояс: UTC + 5



Вы не можете начинать темы
Вы не можете отвечать на сообщения
Вы не можете редактировать свои сообщения
Вы не можете удалять свои сообщения
Вы не можете голосовать в опросах
Вы не можете прикреплять файлы к сообщениям
Вы не можете скачивать файлы