Разверстые могилы / Open Graves (Альваро де Арминьян) [2009, США, Испания, ужасы, триллер, HDRip] (MVO)

Ответить на тему
 

ramil1992 ®

Стаж: 1 год 9 месяцев

Сообщений: 2

Разверстые могилы / Open Graves-«Curses Last Forever» -Страна: США, ИспанияЖанр: ужасы, триллерГод выпуска:2009Продолжительность:01:28:05-Перевод: Профессиональный (многоголосый закадровый)
Cубтитры: нет
Режиссер: Альваро де Арминьян
-В ролях: Майк Фогель / Mike Vogel, Элиза Душку / Eliza Dushku, Этан Рэйнс / Ethan Rains, Найке Ривелли / Naike Rivelli, Линдсэй Кэролайн Робба / Lindsay Caroline Robba, Гэри Пикер / Gary Piquer-Описание: Группа серферов находит магическую настольную игру, после нескольких партий они с ужасом понимают, что в конце каждой кто-то снова будет умирать…-Качество видео: HDRip
Формат видео: AVI
Видео: XviD, 720x384 (1.85:1), 1993 kbps (0.301 b/px), 23.98 fps
Аудио: AC3, 225 kbps (CBR), 48.0 KHz (16 bits), 2 c
-

MediaInfo

General
Complete name : Razverstye.mogily.2009.XviD.HDRip.avi
Format : AVI
Format/Info : Audio Video Interleave
File size : 1.37 GiB
Duration : 1h 28mn
Overall bit rate : 2 226 Kbps
Writing library : VirtualDub build 29963/release
Video
ID : 0
Format : MPEG-4 Visual
Format profile : Advanced [email protected]
Format settings, BVOP : 2
Format settings, QPel : No
Format settings, GMC : No warppoints
Format settings, Matrix : Custom
Muxing mode : Packed bitstream
Codec ID : XVID
Codec ID/Hint : XviD
Duration : 1h 28mn
Bit rate : 1 993 Kbps
Width : 720 pixels
Height : 384 pixels
Display aspect ratio : 1.85:1
Frame rate : 23.976 fps
Color space : YUV
Chroma subsampling : 4:2:0
Bit depth : 8 bits
Scan type : Progressive
Compression mode : Lossy
Bits/(Pixel*Frame) : 0.301
Stream size : 1.23 GiB (90%)
Writing library : XviD 1.2.1 (UTC 2008-12-04)
Audio
ID : 1
Format : AC-3
Format/Info : Audio Coding 3
Mode extension : CM (complete main)
Format settings, Endianness : Big
Codec ID : 2000
Duration : 1h 28mn
Bit rate mode : Constant
Bit rate : 224 Kbps
Channel(s) : 2 channels
Channel positions : Front: L R
Sampling rate : 48.0 KHz
Bit depth : 16 bits
Compression mode : Lossy
Stream size : 141 MiB (10%)
Alignment : Aligned on interleaves
Interleave, duration : 42 ms (1.00 video frame)
Interleave, preload duration : 512 ms

Скриншоты



Создавать темы 04-Фев-2016 17:12

[Профиль]  [ЛС] 
Показать сообщения:    
Ответить на тему

Текущее время: 17-Авг 06:47

Часовой пояс: UTC + 5



Вы не можете начинать темы
Вы не можете отвечать на сообщения
Вы не можете редактировать свои сообщения
Вы не можете удалять свои сообщения
Вы не можете голосовать в опросах
Вы не можете прикреплять файлы к сообщениям
Вы не можете скачивать файлы