Страна чудес (Дмитрий Дьяченко, Максим Свешников) [2015, Комедия, BDRip]

Ответить на тему
 

Roman777 ®

Стаж: 1 год 10 месяцев

Сообщений: 4

Симпатии: 1

Страна чудес
Жанр: Комедия
Год выпуска: 2015
Продолжительность: 01:23:11
Режиссёр: Дмитрий Дьяченко, Максим Свешников
В ролях: Елена Яковлева, Федор Добронравов
Александр Паль, Олеся Железняк
Сергей Лавыгин, Грант Тохатян
Ольга Лерман,Тимофей Трибунцев
Иван Добронравов, Анна Назарова
Описание: Герои фильма — жители самых разных уголков нашей страны, самые обычные люди, с которыми случаются самые необычные вещи, просто чудеса какие-то.
Семье пожарных Семёну и Любе из Костромы выпадает шанс осуществить заветную мечту: поехать в Москву на любимую программу «Поле Чудес», где им предстоит сделать выбор всей жизни «приз или деньги?». Неопытный ППСник, но опытный неудачник Саня должен не только пережить свой первый день в патруле, но ещё принять роды у своей жены и реанимировать своего напарника. Четвёрка новоиспечённых приятелей должна во что бы то ни стало в нелётную погоду улететь в Москву, а пара юных влюблённых каким-то непостижимым способом — примирить своих непримиримых родителей. А Валере вообще предстоит решить дилемму: спасать человечество от всемирного потопа или просто улететь с дружками по караоке — пришельцами, на их cтареньком НЛО?
Всё это может случиться только раз в году, 31 декабря! И только у нас! Всё-таки… Мы такие одни во вселенной.
Качество видео: BDRip
Формат видео: AVI
Видео: Xvid 720x304 24fps 2056kbps
Аудио: AC3, 448 kb/s, (6 ch)

MediaInfo

Общее
Полное имя : Strana.chudes.2015.O.BDRip.avi
Формат : AVI
Формат/Информация : Audio Video Interleave
Размер файла : 1,46 Гбайт
Продолжительность : 1 ч. 23 м.
Общий поток : 2514 Кбит/сек
Программа кодирования : VirtualDubMod 1.5.10.3 (build 2550/release)
Библиотека кодирования : VirtualDubMod build 2550/release
Видео
Идентификатор : 0
Формат : MPEG-4 Visual
Профиль формата : Advanced [email protected]
Параметр BVOP формата : 2
Параметр QPel формата : Нет
Параметр GMC формата : Без точки перехода
Параметр матрицы формата : Default (MPEG)
Идентификатор кодека : XVID
Идентификатор кодека/Подсказка : XviD
Продолжительность : 1 ч. 23 м.
Битрейт : 2056 Кбит/сек
Ширина : 720 пикселей
Высота : 304 пикселя
Соотношение сторон : 2,35:1
Частота кадров : 24,000 кадра/сек
Цветовое пространство : YUV
Субдискретизация насыщенности : 4:2:0
Битовая глубина : 8 бит
Тип развёртки : Прогрессивная
Метод сжатия : С потерями
Бит/(Пиксели*Кадры) : 0.391
Размер потока : 1,19 Гбайт (82%)
Библиотека кодирования : XviD 73
Аудио
Идентификатор : 1
Формат : AC-3
Формат/Информация : Audio Coding 3
Расширение режима : CM (complete main)
Параметр Endianness формата : Big
Идентификатор кодека : 2000
Продолжительность : 1 ч. 23 м.
Вид битрейта : Постоянный
Битрейт : 448 Кбит/сек
Каналы : 6 каналов
Расположение каналов : Front: L C R, Side: L R, LFE
Частота : 48,0 КГц
Частота кадров : 31,250 кадров/сек (1536 spf)
Метод сжатия : С потерями
Размер потока : 267 Мбайт (18%)
Выравнивание : Разделение по промежуткам
Продолжительность промежутка : 42 мс. (1,00 видеокадр)
Время предзагрузки промежутка : 500 мс.

Скриншоты





Последний раз редактировалось: Roman777 (2016-02-04 18:24), всего редактировалось 2 раз(а)

Создавать темы 04-Фев-2016 18:04

[Профиль]  [ЛС] 

kat222000

Стаж: 6 лет 8 месяцев

Сообщений: 608

Симпатии: 1055

Roman777, Спасибо!

Создавать темы 04-Фев-2016 18:25

[Профиль]  [ЛС] 

Windtrader

Стаж: 6 лет 8 месяцев

Сообщений: 13

Симпатии: 2

Спасибо за раздачу , Качал исключительно из за актеров но на деле фильм отровенная хрень - не рекомендую .

Комментарий от ruhal


Это верно - очередная проходная комедия

Создавать темы 05-Фев-2016 15:46

[Профиль]  [ЛС] 
Показать сообщения:    
Ответить на тему

Текущее время: 11-Дек 23:52

Часовой пояс: UTC + 5



Вы не можете начинать темы
Вы не можете отвечать на сообщения
Вы не можете редактировать свои сообщения
Вы не можете удалять свои сообщения
Вы не можете голосовать в опросах
Вы не можете прикреплять файлы к сообщениям
Вы не можете скачивать файлы