Fergie - L.A.LOVE ft. YG, 2014, USA, Hip hop pop R&B, HDRip-AVC

Ответить на тему
 

ИЛЬЯС АЛЛАЯРОВ ®

Стаж: 2 года 6 месяцев

Сообщений: 13

Симпатии: 2

Fergie - L.A.LOVE ft. YG
Страна: USA
Жанр: Hip hop pop R&B
Год выпуска: 2014
Продолжительность: 00:05:08
Качество видео: HDRip-AVC
Формат видео: MP4
Видео: MPEG4 Video (H264) 1280x720 23.976fps 2722kbps [Video]
Аудио: AAC 44100Hz stereo 191kbps [Audio]

MediaInfo

Format : MPEG-4
Format profile : Base Media / Version 2
Codec ID : mp42
File size : 107 MiB
Duration : 5mn 8s
Overall bit rate mode : Variable
Overall bit rate : 2 917 Kbps
Encoded date : UTC 2015-04-20 10:18:54
Tagged date : UTC 2015-04-20 10:18:54
gsst : 0
gstd : 309033
gssd : BADC23A6CHM1441321608903545
gshh : r12---sn-n8v7ln7y.googlevideo.com
Video
ID : 1
Format : AVC
Format/Info : Advanced Video Codec
Format profile : [email protected]
Format settings, CABAC : Yes
Format settings, ReFrames : 1 frame
Codec ID : avc1
Codec ID/Info : Advanced Video Coding
Duration : 5mn 8s
Bit rate : 2 723 Kbps
Maximum bit rate : 6 553 Kbps
Width : 1 280 pixels
Height : 720 pixels
Display aspect ratio : 16:9
Frame rate mode : Constant
Frame rate : 23.976 fps
Color space : YUV
Chroma subsampling : 4:2:0
Bit depth : 8 bits
Scan type : Progressive
Bits/(Pixel*Frame) : 0.123
Stream size : 100 MiB (93%)
Tagged date : UTC 2015-04-20 10:18:58
Audio
ID : 2
Format : AAC
Format/Info : Advanced Audio Codec
Format profile : LC
Codec ID : 40
Duration : 5mn 8s
Bit rate mode : Variable
Bit rate : 192 Kbps
Maximum bit rate : 203 Kbps
Channel(s) : 2 channels
Channel positions : Front: L R
Sampling rate : 44.1 KHz
Compression mode : Lossy
Stream size : 7.07 MiB (7%)
Title : IsoMedia File Produced by Google, 5-11-2011
Language : English
Encoded date : UTC 2015-04-20 10:18:57
Tagged date : UTC 2015-04-20 10:18:58

Скриншоты





Последний раз редактировалось: ИЛЬЯС АЛЛАЯРОВ (2016-02-05 17:52), всего редактировалось 1 раз

Создавать темы 05-Фев-2016 14:56

[Профиль]  [ЛС] 
Показать сообщения:    
Ответить на тему

Текущее время: 23-Ноя 14:19

Часовой пояс: UTC + 5



Вы не можете начинать темы
Вы не можете отвечать на сообщения
Вы не можете редактировать свои сообщения
Вы не можете удалять свои сообщения
Вы не можете голосовать в опросах
Вы не можете прикреплять файлы к сообщениям
Вы не можете скачивать файлы