Украина: Маски революции / Ukraine: les masques de la revolution (Поль Морейра / Paul Moreira) [01.02.2016, Франция, документальный, расследование, политика,Canal+ TVRip] (Dub) (Sub Rus)

Ответить на тему
 

igor1968 ®

Стаж: 5 лет 8 месяцев

Сообщений: 366

Симпатии: 197

Украина: Маски революции / Ukraine: les masques de la revolution Страна: Франция
Жанр: документальный, расследование, политика Canal+
Год выпуска: 01.02.2016
Продолжительность: 00:54:34
Перевод: Любительский (дублированный) (женский читает субтитры)
Cубтитры: русские не отключаемые
Режиссер: Поль Морейра / Paul Moreira
В ролях: Народ Украины
Описание: Документальный проект Украина: маски революции транслировался на французском телеканале Canal+. Украинское посольство в Париже просило отказаться от трансляции фильма во Франции. Но чего так боятся власти Украины? Может быть, правды? Ведь до сих пор Европа не знает всего того, что на самом деле происходило и продолжает происходить как в Киеве, так и во всей стране в целом. Вместо фильма Маски революции представители украинского посольства во Франции предложили телевизионщикам показать по ТВ свою версию происходящего, в которой наспех собраны фрагменты шаблонной пропаганды, которыми забиты под самую завязку украинские телеканалы. Премьера документального фильма, снятого режиссером Морейра, прошла 1 февраля 2016 года. Сюжет рассказывает о тех трагических событиях, которые произошли в Одессе: пожар в Доме Профсоюзов и сожжение около 40 человек (по официальным данным) и более 300 (по неофицальным источникам). Режиссер, рассказывая о съемках фильмах говорит, что его целью было показать всему миру кровавую историю Украины и Одессы в частности. "В самом центре Европы сжигают заживо людей и все об этом молчат."
Качество видео: TVRip
Формат видео: MP4
Видео: MPEG4 Video (H264) 640x356 25fps 514kbps
Аудио: AAC 44100Hz stereo 96kbps

MediaInfo

General
Complete name : NdxjbO-XDOI[yt]_250806868_5649992.mp4.mp4
Format : MPEG-4
Format profile : Base Media
Codec ID : isom
File size : 240 MiB
Duration : 54mn 31s
Overall bit rate mode : Variable
Overall bit rate : 616 Kbps
Writing application : Lavf57.19.100
Video
ID : 1
Format : AVC
Format/Info : Advanced Video Codec
Format profile : [email protected]
Format settings, CABAC : No
Format settings, ReFrames : 1 frame
Codec ID : avc1
Codec ID/Info : Advanced Video Coding
Duration : 54mn 31s
Bit rate : 515 Kbps
Width : 640 pixels
Height : 356 pixels
Display aspect ratio : 16:9
Frame rate mode : Constant
Frame rate : 25.000 fps
Color space : YUV
Chroma subsampling : 4:2:0
Bit depth : 8 bits
Scan type : Progressive
Bits/(Pixel*Frame) : 0.090
Stream size : 201 MiB (84%)
Audio
ID : 2
Format : AAC
Format/Info : Advanced Audio Codec
Format profile : LC
Codec ID : 40
Duration : 54mn 31s
Bit rate mode : Variable
Bit rate : 96.0 Kbps
Maximum bit rate : 106 Kbps
Channel(s) : 2 channels
Channel positions : Front: L R
Sampling rate : 44.1 KHz
Compression mode : Lossy
Stream size : 37.4 MiB (16%)
Video: MPEG4 Video (H264) 640x356 25fps 514kbps [V: h264 constrained baseline L3.0, yuv420p, 640x356, 514 kb/s]
Audio: AAC 44100Hz stereo 96kbps [A: SoundHandler (aac lc, 44100 Hz, stereo, 96 kb/s)]

Скриншот c названием фильма

Скриншоты




Создавать темы 05-Фев-2016 20:02

[Профиль]  [ЛС] 
Показать сообщения:    
Ответить на тему

Текущее время: 22-Ноя 08:44

Часовой пояс: UTC + 5



Вы не можете начинать темы
Вы не можете отвечать на сообщения
Вы не можете редактировать свои сообщения
Вы не можете удалять свои сообщения
Вы не можете голосовать в опросах
Вы не можете прикреплять файлы к сообщениям
Вы не можете скачивать файлы