Паранормальное явление 5: Призраки в 3D / Paranormal Activity: The Ghost Dimension (Грегори Плоткин / Gregory Plotkin) [2015, США, ужасы, BDRip-AVC] | Театральная версия | Лицензия

Ответить на тему
 

kat222000 ®

Стаж: 6 лет 8 месяцев

Сообщений: 608

Симпатии: 1055

Паранормальное явление 5: Призраки в 3D / Paranormal Activity: The Ghost Dimension«Они откроют вам глаза» -Страна: США
Жанр: ужасы
Год выпуска: 2015
Продолжительность: 01:28:04
Перевод: Профессиональный (полное дублирование) (лицензия BD CEE)
Субтитры: русские (полные + форс), украинские (полные + форс), английские (Full + SDH)
Навигация по главам: есть-Режиссер: Грегори Плоткин / Gregory Plotkin-В ролях: Крис Дж. Мюррэй (Ryan), Бриттани Шоу (Emily), Айви Джордж (Leila), Дэн Гилл (Mike), Оливия Тейлор Дадли (Skyler), Хлоя Ксенджери (Katie), Джесика Браун (Kristi), Дон МакМанус (Kent), Майкл Кравич (Father Todd), Халли Фут (Grandma Lois), Эйден Лавкамп (Hunter Rey), Кара Пифко (Laura)-Описание: Молодые супруги Райан и Эмили, и их 6-летняя дочь Лейла переезжают в довольно симпатичный и тихий дом. В гараже они находят видеокамеру и коробку кассет. Но они даже не подозревали, что они увидят, когда заглянут в объектив камеры...- -Возраст: зрителям, достигшим 16 лет-Рейтинг MPAA: лицам до 17 лет обязательно присутствие взрослого-Качество видео: BDRip-AVC
Формат видео: MKV
Видео кодек: AVC
Аудио кодек: AC3
Видео: 1024x576 (16:9), 23,976 fps, AVC ~2 649 kbps avg, 0.187 bit/pixel
Аудио 1: 48 kHz, AC3 Dolby Digital, 3/2 (L,C,R,l,r) + LFE ch, ~448.00 kbps avg (Русский | DUB)
Аудио 2: 48 kHz, AC3 Dolby Digital, 3/2 (L,C,R,l,r) + LFE ch, ~448.00 kbps avg (English | Original)-

〤 ОтчетМедиаИнфо 〤

General
Unique ID : 254828376863296122240831879005600323390 (0xBFB62900C62B124C89787C9F96E9973E)
Format : Matroska
Format version : Version 4 / Version 2
File size : 2.18 GiB
Duration : 1h 28mn
Overall bit rate : 3 540 Kbps
Movie name : Paranormal Activity: The Ghost Dimension (2015)
Encoded date : UTC 2016-02-05 10:11:20
Writing application : mkvmerge v5.9.0 ('On The Loose') built on Dec 15 2012 16:39:58
Writing library : libebml v1.3.0 + libmatroska v1.4.0
Video
ID : 1
Format : AVC
Format/Info : Advanced Video Codec
Format profile : [email protected]
Format settings, CABAC : Yes
Format settings, ReFrames : 12 frames
Codec ID : V_MPEG4/ISO/AVC
Duration : 1h 28mn
Bit rate : 2 649 Kbps
Width : 1 024 pixels
Height : 576 pixels
Display aspect ratio : 16:9
Frame rate mode : Constant
Frame rate : 23.976 fps
Color space : YUV
Chroma subsampling : 4:2:0
Bit depth : 8 bits
Scan type : Progressive
Bits/(Pixel*Frame) : 0.187
Stream size : 1.58 GiB (73%)
Title : potroks
Writing library : x264 core 146 r2538 121396c
Encoding settings : cabac=1 / ref=12 / deblock=1:-2:-2 / analyse=0x3:0x113 / me=umh / subme=11 / psy=1 / psy_rd=1.00:0.05 / mixed_ref=1 / me_range=48 / chroma_me=1 / trellis=2 / 8x8dct=1 / cqm=0 / deadzone=21,11 / fast_pskip=0 / chroma_qp_offset=-3 / threads=9 / lookahead_threads=2 / sliced_threads=0 / nr=0 / decimate=1 / interlaced=0 / bluray_compat=0 / constrained_intra=0 / bframes=13 / b_pyramid=2 / b_adapt=2 / b_bias=0 / direct=3 / weightb=1 / open_gop=0 / weightp=2 / keyint=240 / keyint_min=23 / scenecut=40 / intra_refresh=0 / rc_lookahead=150 / rc=2pass / mbtree=1 / bitrate=2649 / ratetol=1.0 / qcomp=0.70 / qpmin=0 / qpmax=69 / qpstep=4 / cplxblur=20.0 / qblur=0.5 / vbv_maxrate=14000 / vbv_bufsize=14000 / nal_hrd=none / filler=0 / ip_ratio=1.35 / aq=2:0.80
Language : English
Default : Yes
Forced : No
Audio #1
ID : 2
Format : AC-3
Format/Info : Audio Coding 3
Mode extension : CM (complete main)
Format settings, Endianness : Big
Codec ID : A_AC3
Duration : 1h 28mn
Bit rate mode : Constant
Bit rate : 448 Kbps
Channel(s) : 6 channels
Channel positions : Front: L C R, Side: L R, LFE
Sampling rate : 48.0 KHz
Compression mode : Lossy
Stream size : 282 MiB (13%)
Title : Dub | DD 5.1 @ 448 kbps - Blu-Ray cee
Language : Russian
Default : Yes
Forced : No
Audio #2
ID : 3
Format : AC-3
Format/Info : Audio Coding 3
Mode extension : CM (complete main)
Format settings, Endianness : Big
Codec ID : A_AC3
Duration : 1h 28mn
Bit rate mode : Constant
Bit rate : 448 Kbps
Channel(s) : 6 channels
Channel positions : Front: L C R, Side: L R, LFE
Sampling rate : 48.0 KHz
Compression mode : Lossy
Stream size : 282 MiB (13%)
Title : Original | DD 5.1 @ 448 kbps
Language : English
Default : No
Forced : No
Text #1
ID : 4
Format : UTF-8
Codec ID : S_TEXT/UTF8
Codec ID/Info : UTF-8 Plain Text
Title : Forced
Language : Russian
Default : Yes
Forced : No
Text #2
ID : 5
Format : UTF-8
Codec ID : S_TEXT/UTF8
Codec ID/Info : UTF-8 Plain Text
Title : iTunes
Language : Russian
Default : No
Forced : No
Text #3
ID : 6
Format : UTF-8
Codec ID : S_TEXT/UTF8
Codec ID/Info : UTF-8 Plain Text
Title : Forced
Language : Ukrainian
Default : No
Forced : No
Text #4
ID : 7
Format : UTF-8
Codec ID : S_TEXT/UTF8
Codec ID/Info : UTF-8 Plain Text
Title : Blu-Ray
Language : Ukrainian
Default : No
Forced : No
Text #5
ID : 8
Format : UTF-8
Codec ID : S_TEXT/UTF8
Codec ID/Info : UTF-8 Plain Text
Title : Full
Language : English
Default : No
Forced : No
Text #6
ID : 9
Format : UTF-8
Codec ID : S_TEXT/UTF8
Codec ID/Info : UTF-8 Plain Text
Title : SDH
Language : English
Default : No
Forced : No
Menu
00:00:00.000 : en:(01)00:00:00:000
00:01:56.073 : en:(02)00:01:56:073
00:09:23.312 : en:(03)00:09:23:312
00:17:33.176 : en:(04)00:17:33:176
00:24:11.490 : en:(05)00:24:11:490
00:29:08.288 : en:(06)00:29:08:288
00:36:40.989 : en:(07)00:36:40:989
00:42:59.451 : en:(08)00:42:59:451
00:49:04.440 : en:(09)00:49:04:440
00:56:20.668 : en:(10)00:56:20:668
01:04:23.608 : en:(11)01:04:23:608
01:11:25.322 : en:(12)01:11:25:322
01:22:39.119 : en:(13)01:22:39:119
01:28:03.653 : en:(14)01:28:03:653
-

〤 Скриншоты 〤



- © Оформление by kat222000

Создавать темы 05-Фев-2016 23:08

[Профиль]  [ЛС] 
Показать сообщения:    
Ответить на тему

Текущее время: 16-Дек 23:47

Часовой пояс: UTC + 5



Вы не можете начинать темы
Вы не можете отвечать на сообщения
Вы не можете редактировать свои сообщения
Вы не можете удалять свои сообщения
Вы не можете голосовать в опросах
Вы не можете прикреплять файлы к сообщениям
Вы не можете скачивать файлы