Темнота / Dark (Ник Басиле) [2015, США, ужасы, триллер, драма, WEB-DLRip] (DVO : [Parovoz Production])

Ответить на тему
 

lucky999 ®

Стаж: 2 года 2 месяца

Сообщений: 32

Симпатии: 43

-Темнота / Dark-- Страна: США
Жанр: ужасы, триллер, драма
Год выпуска: 2015
Продолжительность: 01:34:01--Перевод: Любительский (двухголосый) Доп. инфо о переводе [Parovoz Production]
Режиссер: Ник Басиле
В ролях: Уитни Эйбл, Александра Брекенридж, Майкл Эклунд, Брендан Секстон III, Редман, Юнис Ан, Стил Буркхардт
Описание: Сюжет картины вращается вокруг модели средних лет, которая, оставшись одна в квартире во время одного из крупнейших отключений света в истории Северной Америки, вынуждена лицом к лицу столкнуться со своими глубочайшими страхами…--Доп. информация:
IMDB рейтинг: 7.1/10
КиноПоиск рейтинг: 0.0/10--Качество видео: WEB-DLRip
Формат видео: AVI--Видео: AVI, 1869 kbps, 720x400
Аудио: AC3, 192 kb/s (2 ch)--

MediaInfo

General
Complete name : E:\torrent\2aRk.2015.L2.WEB-DLRip.1400MB.avi
Format : AVI
Format/Info : Audio Video Interleave
File size : 1.36 GiB
Duration : 1h 34mn
Overall bit rate : 2 071 Kbps
Writing application : VirtualDubMod 1.5.10.3 | www.virtualdub-fr.org || (build 2550/release)
Writing library : VirtualDubMod build 2550/release
Video
ID : 0
Format : MPEG-4 Visual
Format profile : Advanced [email protected]
Format settings, BVOP : 2
Format settings, QPel : No
Format settings, GMC : No warppoints
Format settings, Matrix : Default (MPEG)
Codec ID : XVID
Codec ID/Hint : XviD
Duration : 1h 34mn
Bit rate : 1 869 Kbps
Width : 720 pixels
Height : 400 pixels
Display aspect ratio : 16:9
Frame rate : 24.000 fps
Color space : YUV
Chroma subsampling : 4:2:0
Bit depth : 8 bits
Scan type : Progressive
Compression mode : Lossy
Bits/(Pixel*Frame) : 0.270
Stream size : 1.23 GiB (90%)
Writing library : XviD 1.2.1 (UTC 2008-12-04)
Audio
ID : 1
Format : AC-3
Format/Info : Audio Coding 3
Mode extension : CM (complete main)
Format settings, Endianness : Big
Codec ID : 2000
Duration : 1h 34mn
Bit rate mode : Constant
Bit rate : 192 Kbps
Channel(s) : 2 channels
Channel positions : Front: L R
Sampling rate : 48.0 KHz
Compression mode : Lossy
Stream size : 129 MiB (9%)
Alignment : Split accross interleaves
Interleave, duration : 42 ms (1.00 video frame)
Interleave, preload duration : 500 ms

Скриншоты




Создавать темы 06-Фев-2016 00:58

[Профиль]  [ЛС] 
Показать сообщения:    
Ответить на тему

Текущее время: 20-Ноя 01:01

Часовой пояс: UTC + 5



Вы не можете начинать темы
Вы не можете отвечать на сообщения
Вы не можете редактировать свои сообщения
Вы не можете удалять свои сообщения
Вы не можете голосовать в опросах
Вы не можете прикреплять файлы к сообщениям
Вы не можете скачивать файлы