Проект 12: Бункер / Project 12: The Bunker (Джейми Фалеро) [2016, Испания, фантастика, боевик, триллер, приключения, DVDRip]DVO [datynet]

Ответить на тему
 

ruhal ®

Стаж: 2 года 7 месяцев

Сообщений: 1181

Симпатии: 1836

- -Проект 12: Бункер / Project 12: The Bunker- - Страна: Испания
Жанр: фантастика, боевик, триллер, приключения
Год выпуска: 2016
Продолжительность: 01:37:08-Перевод: Любительский (Одноголосый) [datynet]
Cубтитры: нет-Режиссер: Джейми Фалеро-В ролях: Джеймс Космо, Хоакин Санчез, Наташа Алам, Эрик Робертс, Тимоти
Гиббс, Тони Корвильо, Джеймс Коннер Фергюсон, Хосе Луис Де Мадарьяга-Описание: В начале семидесятых годов в самый разгар Холодной войны Советский Союз вёл инновационные разработки разрушительного оружия,
способного в один миг прекратить войну и изменить ход человеческой истории.
Для работ над Проектом 12 были привлечены лучшие умы Союза, трудившиеся сутки напролёт
над непобедимой машиной - армией солдат с невероятными способностями, которых не берут ни пули, ни время.
В итоге руководство сочло Проект 12 слишком опасным и закрыло его,
приказав убить всех участвовавших в разработке учёных, чтобы сохранить секрет от мира.
Троим удалось сбежать из под огня и скрыться, а Проект 12 был захоронен в особо охраняемом подземном бункере, заброшенном в пустыне много лет назад-Качество видео: DVDRip
Формат видео: AVI
Видео: Xvid 720x304 23.976fps 1619kbps
Аудио: Dolby AC3 48000Hz stereo 192kbps[Rus]
Аудио 2: Dolby AC3 48000Hz 6ch 192kbps[Eng]
-

MediaInfo

General
Complete name : E:\Films\Bynker12.L1.avi
Format : AVI
Format/Info : Audio Video Interleave
File size : 1.37 GiB
Duration : 1h 37mn
Overall bit rate : 2 018 Kbps
Writing application : VirtualDubMod 1.5.10.3 | www.virtualdub-fr.org || (build 2550/release)
Writing library : VirtualDubMod build 2550/release
Video
ID : 0
Format : MPEG-4 Visual
Format profile : Advanced [email protected]
Format settings, BVOP : 2
Format settings, QPel : No
Format settings, GMC : No warppoints
Format settings, Matrix : Default (MPEG)
Codec ID : XVID
Codec ID/Hint : XviD
Duration : 1h 37mn
Bit rate : 1 620 Kbps
Width : 720 pixels
Height : 304 pixels
Display aspect ratio : 2.35:1
Frame rate : 23.976 fps
Color space : YUV
Chroma subsampling : 4:2:0
Bit depth : 8 bits
Scan type : Progressive
Compression mode : Lossy
Bits/(Pixel*Frame) : 0.309
Stream size : 1.10 GiB (80%)
Writing library : XviD 1.2.1 (UTC 2008-12-04)
Audio #1
ID : 1
Format : AC-3
Format/Info : Audio Coding 3
Mode extension : CM (complete main)
Format settings, Endianness : Big
Codec ID : 2000
Duration : 1h 37mn
Bit rate mode : Constant
Bit rate : 192 Kbps
Channel(s) : 2 channels
Channel positions : Front: L R
Sampling rate : 48.0 KHz
Bit depth : 16 bits
Compression mode : Lossy
Stream size : 133 MiB (10%)
Alignment : Split accross interleaves
Interleave, duration : 42 ms (1.00 video frame)
Interleave, preload duration : 500 ms
Audio #2
ID : 2
Format : AC-3
Format/Info : Audio Coding 3
Mode extension : CM (complete main)
Format settings, Endianness : Big
Codec ID : 2000
Duration : 1h 37mn
Bit rate mode : Constant
Bit rate : 192 Kbps
Channel(s) : 6 channels
Channel positions : Front: L C R, Side: L R, LFE
Sampling rate : 48.0 KHz
Bit depth : 16 bits
Compression mode : Lossy
Stream size : 133 MiB (10%)
Alignment : Split accross interleaves
Interleave, duration : 42 ms (1.00 video frame)
Interleave, preload duration : 500 ms

Скриншоты



Создавать темы 06-Фев-2016 09:32

[Профиль]  [ЛС] 

ravshan-1979

Стаж: 6 лет 4 месяца

Сообщений: 4

Симпатии: 3

tv3

Создавать темы 11-Фев-2016 15:27

[Профиль]  [ЛС] 

akmalchik

Стаж: 4 года 9 месяцев

Сообщений: 1

cкорость плиз

Создавать темы 25-Фев-2016 13:09

[Профиль]  [ЛС] 

sensej7785

Стаж: 5 лет 5 месяцев

Сообщений: 11

Одно не радует, что там снимается Эрик Робертс.

Создавать темы 28-Фев-2016 22:16

[Профиль]  [ЛС] 

KarpovS

Стаж: 5 лет

Сообщений: 7

на 4 том скрине ctrl+c, ctrl+v )))

Создавать темы 12-Мар-2016 06:37

[Профиль]  [ЛС] 

sherzodhoja

Стаж: 6 лет 11 месяцев

Сообщений: 6

Симпатии: 1

стоит качать или нет?

Создавать темы 15-Мар-2016 21:47

[Профиль]  [ЛС] 
Показать сообщения:    
Ответить на тему

Текущее время: 18-Ноя 21:02

Часовой пояс: UTC + 5



Вы не можете начинать темы
Вы не можете отвечать на сообщения
Вы не можете редактировать свои сообщения
Вы не можете удалять свои сообщения
Вы не можете голосовать в опросах
Вы не можете прикреплять файлы к сообщениям
Вы не можете скачивать файлы