Лазерная команда / Lazer Team (Matt Hullum) [2015, США, фантастика, боевик, комедия, WEB-DLRip] (DVO : [den904 & DeadSno])

Ответить на тему
 

igor1968 ®

Стаж: 5 лет 8 месяцев

Сообщений: 366

Симпатии: 197

Лазерная команда / Lazer Team«Mankind's darkest hour needs our brightest team» Страна:
Жанр: фантастика, боевик, комедия
Год выпуска: 2015
Продолжительность: 01:42:26
Перевод: Любительский (двухголосый закадровый)
Доп. инфо о переводе : [den904 & DeadSno]
Примечание: : Релиз без рекламы. Присутствует ненормативная лексика.
Cубтитры: нет
Режиссер: Matt Hullum
В ролях: Алан Ричсон, Ирина Воронина, Колтон Данн, Александрия ДеБерри, Гэвин Фри, Бёрни Бёрнс, Джоэль Хейман, Майкл Джонс, Джереми Ст. Джеймс, Далтон Е. Грэй
Из космоса поступает сообщение, тщательно закодированное. Сигнал гласит, что планете Земля угрожает опасность. Скоро на её поверхность прибудут пришельцы, и они явно не настроены дружелюбно по отношению к людям. По стечению обстоятельств, компания из 4 очень разных друзей станет свидетелями крушения космического корабля. На борту ребята находят части специального снаряжения. Каждый из героев с нетерпением примеряет на себя загадочные объекты. Так парни становятся обладателями особых приспособлений в виде шлема, специальной рукоятки, лазерного протектора для кисти и конечно одной пары «обуви». Разобрав удивительное добро и поделив между собой, молодые люди не думали, что привлекут внимание правительства. Теперь им предстоит сверхсложная задача совершить контакт с инопланетной расой и нанести ответный удар в случае нападения. Тренировать всю компанию принимается Адам — настоящий профессионал военного дела. Он должен наставить недалёких обладателей космического снаряжения на путь защиты страны, научив особенностям пользования «инопланетными вещами». По мере тренировок ребята ощущают сплочение, и узнают больше о свойствах того снаряжения, что они раздобыли на корабле.-Релиз группы: - -Качество: WEB-DLRip
Формат: AVI
Видео: xvid, 720x480, ~1695 kbps, 23,976 fps
Аудио: AC3, 48 kHz, 224 kbps, 2 ch-

MediaInfo

General
Complete name : Lazer Team (2015) WEB-DLRip 1.45Gb.avi
Format : AVI
Format/Info : Audio Video Interleave
Format profile : OpenDML
File size : 1.38 GiB
Duration : 1h 42mn
Overall bit rate : 1 932 Kbps
Writing application : Lavf54.63.104
Video
ID : 0
Format : xvid
Codec ID : xvid
Duration : 1h 42mn
Bit rate : 1 695 Kbps
Width : 720 pixels
Height : 480 pixels
Display aspect ratio : 3:2
Frame rate : 23.976 fps
Scan type : Progressive
Bits/(Pixel*Frame) : 0.205
Stream size : 1.21 GiB (88%)
Audio
ID : 1
Format : AC-3
Format/Info : Audio Coding 3
Mode extension : CM (complete main)
Format settings, Endianness : Big
Codec ID : 2000
Duration : 1h 42mn
Bit rate mode : Constant
Bit rate : 224 Kbps
Channel(s) : 2 channels
Channel positions : Front: L R
Sampling rate : 48.0 KHz
Frame rate : 31.250 fps (1536 spf)
Bit depth : 16 bits
Compression mode : Lossy
Stream size : 164 MiB (12%)
Alignment : Aligned on interleaves
Interleave, duration : 32 ms (0.77 video frame)
- -

Создавать темы 06-Фев-2016 14:20

[Профиль]  [ЛС] 

hunter07

Стаж: 4 года 5 месяцев

Сообщений: 15

Симпатии: 1

не уходите пожалуста с раздачи неделю качаю не могу скачать

Создавать темы 09-Фев-2016 21:48

[Профиль]  [ЛС] 

Valera68

Стаж: 1 год 8 месяцев

Сообщений: 12

Про четырех дурачков, которые спасли мир.

Создавать темы 06-Апр-2017 18:02

[Профиль]  [ЛС] 
Показать сообщения:    
Ответить на тему

Текущее время: 23-Ноя 01:27

Часовой пояс: UTC + 5



Вы не можете начинать темы
Вы не можете отвечать на сообщения
Вы не можете редактировать свои сообщения
Вы не можете удалять свои сообщения
Вы не можете голосовать в опросах
Вы не можете прикреплять файлы к сообщениям
Вы не можете скачивать файлы