Времена Донбасса / Donbass Seasons (Sara Reginella) [2016, Италия, Документальный, HDTVRip] [Sara Reginella Video Projects] (Sub Rus)

Ответить на тему
 

igor1968 ®

Стаж: 5 лет 9 месяцев

Сообщений: 366

Симпатии: 197

Времена Донбасса / Donbass Seasons / Sara Reginella Video Projects
Страна: Италия
Жанр: Документальный
Год выпуска: 2016
Продолжительность: 00:59:54
Перевод: Отсутствует
Язык: Итальянский
Cубтитры: русские (Вшитые)
Режиссер: С. Реджинелла / Sara Reginella
В ролях: Народ Украины
Описание: Идея создания этого фильма родилась благодаря желанию объединить многочисленные видеоматериалы Э. Бертолази, снятые в Донецкой и Луганской регионах в один фильм (бльшая часть видеоматериалов в фильме съемки от Майдана и до событий на Донбассе осенью 2015 г.). В фильм также включены видеосъёмки репортера Сергея Рулева. "Времена Донбасса" - документальный фильм, который прослеживает историю войны на Донбассе, начиная с переворота в Киеве и резни в Одессе до взрыва конфликта. В нём содержатся интервью с Николаем Лилиным, Элизео Бертолази и Вауро Сенези. Режиссер С. Реджинелла показывает смену времен года и течение жизни на Донбассе, где несмотря на страдания, жизнь людей продолжается. В фильм "Времена Донбасса" вошли беседы и интервью с жителями, познавшими всю горечь войны.
Качество видео: HDTVRip
Формат видео: AVI
Видео: Xvid, 1280х720, ~2000 kb/s
Аудио: MP3, 2 ch, 192 kb/s

MediaInfo

General
Complete name : Времена Донбасса. Donbass Seasons.avi
Format : AVI
Format/Info : Audio Video Interleave
File size : 937 MiB
Duration : 59mn 54s
Overall bit rate : 2 188 Kbps
Writing application : MEncoder SVN-r33883(20110719-gcc4.5.2)
Writing library : MPlayer
Video
ID : 0
Format : MPEG-4 Visual
Format profile : Advanced [email protected]
Format settings, BVOP : 2
Format settings, QPel : No
Format settings, GMC : No warppoints
Format settings, Matrix : Default (H.263)
Codec ID : XVID
Codec ID/Hint : XviD
Duration : 59mn 54s
Bit rate : 1 900 Kbps
Width : 1 280 pixels
Height : 720 pixels
Display aspect ratio : 16:9
Frame rate : 25.000 fps
Color space : YUV
Chroma subsampling : 4:2:0
Bit depth : 8 bits
Scan type : Progressive
Compression mode : Lossy
Bits/(Pixel*Frame) : 0.082
Stream size : 814 MiB (87%)
Writing library : XviD 1.2.1 (UTC 2008-12-04)
Audio
ID : 1
Format : MPEG Audio
Format version : Version 1
Format profile : Layer 3
Mode : Joint stereo
Codec ID : 55
Codec ID/Hint : MP3
Duration : 59mn 54s
Bit rate mode : Constant
Bit rate : 192 Kbps
Channel(s) : 2 channels
Sampling rate : 44.1 KHz
Compression mode : Lossy
Delay relative to video : 40ms
Stream size : 82.3 MiB (9%)
Alignment : Aligned on interleaves
Writing library : LAME3.98.4
- -

Создавать темы 06-Фев-2016 19:59

[Профиль]  [ЛС] 
Показать сообщения:    
Ответить на тему

Текущее время: 18-Дек 08:25

Часовой пояс: UTC + 5



Вы не можете начинать темы
Вы не можете отвечать на сообщения
Вы не можете редактировать свои сообщения
Вы не можете удалять свои сообщения
Вы не можете голосовать в опросах
Вы не можете прикреплять файлы к сообщениям
Вы не можете скачивать файлы