Наркоман Павлик 3 сезон +18. [Серии 01-14+bonus] (2015) MPEG4 Video

Ответить на тему
 

Rusy ®

Стаж: 4 года 7 месяцев

Сообщений: 6

Симпатии: 4

Наркоман Павлик 3 сезон.
Страна: Россия / Самара | 3 сезон 1-14 серии + bonus
Продолжительность: 00:11:56
Язык: Русский

Режиссер:
Павел Радонцев
В ролях: Павел Радонцев, Денис Гущин, Кирилл Демидов, Антон Батищев, Илья Сорокин, Андрей Савицкий, Регина Вожова, Иван Солдаткин, Ольга Лапушкина, Михаил Мартынов, Хамид Дышниев, Андрей Мирославский, Артём Веретенников, Николай Гусляров
О фильме: Этот проект представляет собой небольшие короткометражные сюжеты разбавляя их качественным юмором. Павлик наркоман и его друзья Денчик, Женёк и Антоша любят попадать в различные передряги и истории, конечно не забывая снимать их на камеру. Они умеют находить общий язык как с незнакомцами так и со своими друзьями. Так же умеют шутить и предоставлять своей аудитории довольно качественно отснятый контент, ведь это и является их работой. Пускай эти сюжеты и небольшие, но будьте уверенны вы получите незабываемые ощущения и большой заряд позитива на весь день.
Качество: HD-Video (H264)
Формат: MPEG4 Video
Видео кодек: AVC
Аудио кодек: AAC
Видео: 1280x720 25fps 1915kbps
Аудио: Stereo 44100Hz 192kbps

MediaInfo
General
Format : MPEG-4
Format profile : Base Media / Version 2
Codec ID : mp42
File size : 187 MiB
Duration : 12mn 23s
Overall bit rate mode : Variable
Overall bit rate : 2 110 Kbps
Encoded date : UTC 2015-11-17 08:33:55
Tagged date : UTC 2015-11-17 08:33:55
gsst : 0
gstd : 743711
gssd : BADC29603
gshh : r3---sn-n8v7sned.googlevideo.com
Video
ID : 1
Format : AVC
Format/Info : Advanced Video Codec
Format profile : [email protected]
Format settings, CABAC : Yes
Format settings, ReFrames : 1 frame
Codec ID : avc1
Codec ID/Info : Advanced Video Coding
Duration : 12mn 23s
Bit rate : 1 915 Kbps
Maximum bit rate : 10.2 Mbps
Width : 1 280 pixels
Height : 720 pixels
Display aspect ratio : 16:9
Frame rate mode : Constant
Frame rate : 25.000 fps
Color space : YUV
Chroma subsampling : 4:2:0
Bit depth : 8 bits
Scan type : Progressive
Bits/(Pixel*Frame) : 0.083
Stream size : 170 MiB (91%)
Tagged date : UTC 2015-11-17 08:34:15
Audio
ID : 2
Format : AAC
Format/Info : Advanced Audio Codec
Format profile : LC
Codec ID : 40
Duration : 12mn 23s
Bit rate mode : Variable
Bit rate : 192 Kbps
Maximum bit rate : 202 Kbps
Channel(s) : 2 channels
Channel positions : Front: L R
Sampling rate : 44.1 KHz
Compression mode : Lossy
Stream size : 17.0 MiB (9%)
Title : IsoMedia File Produced by Google, 5-11-2011
Language : English
Encoded date : UTC 2015-11-17 08:34:07
Tagged date : UTC 2015-11-17 08:34:15
Screenshot







Создавать темы 07-Фев-2016 13:23

[Профиль]  [ЛС] 
Показать сообщения:    
Ответить на тему

Текущее время: 22-Сен 11:26

Часовой пояс: UTC + 5



Вы не можете начинать темы
Вы не можете отвечать на сообщения
Вы не можете редактировать свои сообщения
Вы не можете удалять свои сообщения
Вы не можете голосовать в опросах
Вы не можете прикреплять файлы к сообщениям
Вы не можете скачивать файлы