В прошлом году в Мариенбаде / L'année dernière à Marienbad (Ален Рене) [1961, Франция, Италия, драма, детектив, BDRip] (DVO) (Sub Rus + Original Fre)

Ответить на тему
 

lotto ®

Стаж: 7 лет 9 месяцев

Сообщений: 221

Симпатии: 409

В прошлом году в Мариенбаде / L'année dernière à Marienbad
«It Has The 'Marienbad Look'»
-- Страна: Франция, Италия
Жанр: драма, детектив
Год выпуска: 1961
Продолжительность: 01:34:44
Перевод: Профессиональный (двухголосый закадровый)
Cубтитры: русские
Оригинальная аудиодорожка: французский--Режиссер: Ален Рене
В ролях: Дельфин Сейриг, Джорджио Альбертацци, Саша Питоефф, Франсуаз Бертен, Люси Гарсиа-Виль, Элена Корнель, Франсуаза Спира, Карин Тоше-Миттлер, Пьер Барбо, Вильгельм фон Дик--Описание: Действие разворачивается в французском отеле. Молодой человек пытается убедить девушку, что в прошлом году они уже встречались в саду Фредериксбурга. Но девушка не то, что не помнит этого человека, она даже не знает, была ли эта встреча в Фредериксбурге или Мариенбаде. Молодой человек описывает момент их встречи. Рассказывает, что она едва не отдалась ему, но передумала в последнюю минуту. Они тогда договорились встретиться здесь через год, чтобы проверить, как сильны их чувства…-- --Качество видео: BDRip
Формат видео: AVI
Видео: Xvid, 720x304, 23.976fps, 1804kbps
Аудио: AC3 48000Hz stereo 192kbps (русский, двухголосый)
Аудио 2: AC3 48000Hz stereo 192kbps (оригинал)
Формат субтитров: softsub (SRT)

MediaInfo

General
Complete name : V.Proshlom.Godu.V.Marienbade.1961.DUAL.BDRip.XviD.AC3.-HQ-VIDEO.avi
Format : AVI
Format/Info : Audio Video Interleave
File size : 1.46 GiB
Duration : 1h 34mn
Overall bit rate : 2 202 Kbps
Movie name : В прошлом году в Мариенбаде / L annee derniere a Marienbad / Last Year at Marienbad (1961)
Director : SENATOR (BDRip 720)
Writing application : VirtualDubMod 1.5.10.2 (build 2540/release)
Copyright : HQ-ViDEO (www.hq-video.ru)
Comment : 6.08.2009
Video
ID : 0
Format : MPEG-4 Visual
Format profile : Advanced [email protected]
Format settings, BVOP : 2
Format settings, QPel : No
Format settings, GMC : No warppoints
Format settings, Matrix : Custom
Codec ID : XVID
Codec ID/Hint : XviD
Duration : 1h 34mn
Bit rate : 1 804 Kbps
Width : 720 pixels
Height : 304 pixels
Display aspect ratio : 2.35:1
Frame rate : 23.976 (23976/1000) fps
Color space : YUV
Chroma subsampling : 4:2:0
Bit depth : 8 bits
Scan type : Progressive
Compression mode : Lossy
Bits/(Pixel*Frame) : 0.344
Stream size : 1.19 GiB (82%)
Writing library : XviD 1.2.1 (UTC 2008-12-04)
Audio #1
ID : 1
Format : AC-3
Format/Info : Audio Coding 3
Format profile : Dolby Digital
Mode extension : CM (complete main)
Format settings, Endianness : Big
Codec ID : 2000
Duration : 1h 34mn
Bit rate mode : Constant
Bit rate : 192 Kbps
Channel(s) : 2 channels
Channel positions : Front: L R
Sampling rate : 48.0 KHz
Frame rate : 31.250 fps (1536 spf)
Compression mode : Lossy
Stream size : 130 MiB (9%)
Alignment : Split accross interleaves
Interleave, duration : 42 ms (1.00 video frame)
Interleave, preload duratio : 500 ms
Audio #2
ID : 2
Format : AC-3
Format/Info : Audio Coding 3
Mode extension : CM (complete main)
Format settings, Endianness : Big
Codec ID : 2000
Duration : 1h 34mn
Bit rate mode : Constant
Bit rate : 192 Kbps
Channel(s) : 1 channel
Channel positions : Front: C
Sampling rate : 48.0 KHz
Frame rate : 31.250 fps (1536 spf)
Bit depth : 16 bits
Compression mode : Lossy
Stream size : 130 MiB (9%)
Alignment : Split accross interleaves
Interleave, duration : 42 ms (1.00 video frame)
Interleave, preload duratio : 500 ms

Скриншот c названием фильма

Скриншоты






Создавать темы 07-Фев-2016 17:11

[Профиль]  [ЛС] 

lotto ®

Стаж: 7 лет 9 месяцев

Сообщений: 221

Симпатии: 409

Поклонникам Тарковского посвящается...
Пару слов о данной картине.
Фильм о таинствах человеческой природы, визуализация эстетики в кадре вызывает большое количество ассоциаций, изображение воздействует на личностное и безличностное "Я". Реакция человека станет - когнитивный диссонанс, отторжение, либо попытка объяснить неосязаемое, находящееся за гранью бытия.
Картина является тестом в восприятии окружающего мира.
Итак, каково ваше представление...

Создавать темы 07-Фев-2016 17:34

[Профиль]  [ЛС] 
Показать сообщения:    
Ответить на тему

Текущее время: 19-Окт 19:20

Часовой пояс: UTC + 5



Вы не можете начинать темы
Вы не можете отвечать на сообщения
Вы не можете редактировать свои сообщения
Вы не можете удалять свои сообщения
Вы не можете голосовать в опросах
Вы не можете прикреплять файлы к сообщениям
Вы не можете скачивать файлы