Строго на Запад / Slow West (Джон Маклин) [2015, Великобритания, Новая Зеландия, боевик, триллер, вестерн, HDRip] [iTunes]

Ответить на тему
 

ruhal ®

Стаж: 2 года 4 месяца

Сообщений: 1182

Симпатии: 1836

- -Строго на Запад / Slow West- - Страна: Великобритания, Новая Зеландия
Жанр: боевик, триллер, вестерн
Год выпуска: 2015
Продолжительность: 01:23:59-Перевод: Профессиональный (дублированный) [iTunes]
Cубтитры: нет-Режиссер: Джон Маклин-В ролях: Майкл Фассбендер, Бен Мендельсон, Коди Смит-МакФи, Рори МакКанн,
Брук Уильямс, Карен Писториус, Алекс МакКуин, Энди МакФи, Джеффри Томас, Калани Кейпо-Описание: Фильм рассказывает историю 17-летнего паренька по имени Джей Кавендиш,
который путешествует по всей американской границе в поисках девушки, которую он любит.
В опасном приключении его сопровождает таинственный путешественник Сайлас.-Качество видео: HDRip
Формат видео: AVI
Видео: Xvid 672x400 24fps 1961kbps
Аудио: Dolby AC3 48000Hz 6ch 384kbps
-

MediaInfo

General
Complete name : E:\Films\Slow.WEST.2015.D.HDRip.14OOMb.avi
Format : AVI
Format/Info : Audio Video Interleave
File size : 1.37 GiB
Duration : 1h 23mn
Overall bit rate : 2 354 Kbps
Writing application : VirtualDubMod 1.5.10.2 (build 2540/release)
Writing library : VirtualDubMod build 2540/release
Video
ID : 0
Format : MPEG-4 Visual
Format profile : Advanced [email protected]
Format settings, BVOP : 2
Format settings, QPel : No
Format settings, GMC : No warppoints
Format settings, Matrix : Custom
Codec ID : XVID
Codec ID/Hint : XviD
Duration : 1h 23mn
Bit rate : 1 962 Kbps
Width : 672 pixels
Height : 400 pixels
Display aspect ratio : 1.680
Frame rate : 24.000 fps
Color space : YUV
Chroma subsampling : 4:2:0
Bit depth : 8 bits
Scan type : Progressive
Compression mode : Lossy
Bits/(Pixel*Frame) : 0.304
Stream size : 1.14 GiB (83%)
Writing library : XviD 1.2.1 (UTC 2008-12-04)
Audio
ID : 1
Format : AC-3
Format/Info : Audio Coding 3
Mode extension : CM (complete main)
Format settings, Endianness : Big
Codec ID : 2000
Duration : 1h 22mn
Bit rate mode : Constant
Bit rate : 384 Kbps
Channel(s) : 6 channels
Channel positions : Front: L C R, Side: L R, LFE
Sampling rate : 48.0 KHz
Bit depth : 16 bits
Compression mode : Lossy
Delay relative to video : 11ms
Stream size : 228 MiB (16%)
Alignment : Split accross interleaves
Interleave, duration : 42 ms (1.00 video frame)
Interleave, preload duration : 500 ms

Скриншоты



Создавать темы 07-Фев-2016 17:19

[Профиль]  [ЛС] 
Показать сообщения:    
Ответить на тему

Текущее время: 23-Авг 13:14

Часовой пояс: UTC + 5



Вы не можете начинать темы
Вы не можете отвечать на сообщения
Вы не можете редактировать свои сообщения
Вы не можете удалять свои сообщения
Вы не можете голосовать в опросах
Вы не можете прикреплять файлы к сообщениям
Вы не можете скачивать файлы