Остров / Сезон: 1 / Серии: 1-24 из 24 (Александр Наумов (II), Михаил Старчак, Артем Насыбулин) [2016, комедия, SATRip]

Страницы :  1, 2  След.

Ответить на тему
 

Sunnat1999 ®

Стаж: 4 года 7 месяцев

Сообщений: 756

Симпатии: 416

ОстровСерии: 1-24 из 24-- Год выпуска: 2016
Производство: Россия
Жанр: комедия
Продолжительность: ~00:25:00 серия
Субтитры: нет-Режиссёр: Александр Наумов (II), Михаил Старчак, Артем Насыбулин-В ролях: Янина Студилина, Денис Косяков, Ирина Вилкова, Кирилл Мелехов, Анастасия Асеева, Анфиса Вистингаузен, Григорий Калинин,Евгений Кулик (II), Роман Хан, Олеся Жураковская, Леонид Моложанов,Сергей Бурунов, Светлана Павлова, Светлана Харлап, Игорь Жижикин,Анфиса Черных, Николай Ефремов (II), Игорь Яцко, Александра Ребенок,Александр Наумов (II), Константин Пояркин, Елена Лемешко, Нока Хоанг-Описание: Съемочная группа прибывает на необитаемый остров для создания нового реалити-шоу «Остров». По замыслу продюсеров, участники должны бороться друг с другом, с самими собой и с условиями дикой природы, в которые они попадут. Они будут выполнять задания, накапливая деньги в общий банк и зарабатывая рейтинг в глазах телезрителей. Однако все пойдет против плана, когда яхта со съемочной группой неожиданно взорвется. Приняв это за сигнал к старту шоу, участники вступают в игру, даже не догадываясь, что они в западне. Их никто не будет снимать и искать. Связь с цивилизацией отсутствует. В голове только одно - победить в шоу, которого нет.-Доп. информация:
 
-Качество: SATRip
Формат: AVI
Видео кодек: XviD
Аудио кодек: MP3
Видео: XviD, 1800 kb/s, 720x400
Аудио: MP3, 128 kb/s (2 ch)
-ВНИМАНИЕ! РАЗДАЧА ВЕДЁТСЯ ПУТЁМ ДОБАВЛЕНИЯ НОВЫХ СЕРИЙ!
ДОБАВЛЕНА 24 СЕРИЯ! ПОЖАЛУЙСТА ОБНОВИТЕ ТОРРЕНТ

Как обновить торрент

Когда раздача ведётся путём добавления новых серий, при каждом добавлении создётся новый торрент. Чтобы начать докачку новой серии, пользователям необходимо сделать следующее:
(1) остановить скачивание,
(2) удалить старый торрент у себя из клиента (старые серии удалять не надо),
(3) скачать новый торрент и запустить его у себя в клиенте вместо старого, при этом указать клиенту путь в старую папку, куда и должно происходить скачивание новых серий.
Ваш клиент при этом должен произвести хеширование (проверку) старой папки (если не производит сам - помогите ему сделать это), и будет докачивать только те серии, которых у вас ещё нет. Старые серии при этом не удаляются, а продолжают раздаваться!
Eсли вы уже удалили старые серии, то предотвратить повторную закачку старых серий можно, отжав галочку в соответсвующих местах при запуске нового торрента. По возможности, желательно не удалять старые серии как можно дольше, чтобы релизёр не столько продолжал раздавать старые серии, а смог сконцентрироваться на новых.

MI

General
Complete name : \Остров 2016 SATRip\Серия 01.avi
Format : AVI
Format/Info : Audio Video Interleave
File size : 551 MiB
Duration : 40mn 37s
Overall bit rate : 1 898 Kbps
Writing application : VirtualDubMod 1.5.10.3 (build 2550/release)
Writing library : VirtualDubMod build 2550/release
Video
ID : 0
Format : MPEG-4 Visual
Format profile : Advanced [email protected]
Format settings, BVOP : 1
Format settings, QPel : No
Format settings, GMC : No warppoints
Format settings, Matrix : Default (H.263)
Codec ID : XVID
Codec ID/Hint : XviD
Duration : 40mn 37s
Bit rate : 1 696 Kbps
Width : 720 pixels
Height : 400 pixels
Display aspect ratio : 16:9
Frame rate : 25.000 fps
Color space : YUV
Chroma subsampling : 4:2:0
Bit depth : 8 bits
Scan type : Progressive
Compression mode : Lossy
Bits/(Pixel*Frame) : 0.236
Stream size : 493 MiB (89%)
Writing library : XviD 67
Audio
ID : 1
Format : MPEG Audio
Format version : Version 1
Format profile : Layer 3
Mode : Joint stereo
Codec ID : 55
Codec ID/Hint : MP3
Duration : 40mn 37s
Bit rate mode : Constant
Bit rate : 192 Kbps
Channel(s) : 2 channels
Sampling rate : 48.0 KHz
Compression mode : Lossy
Stream size : 55.8 MiB (10%)
Alignment : Split accross interleaves
Interleave, duration : 40 ms (1.00 video frame)
Interleave, preload duratio : 500 ms
Writing library : LAME3.99.5ЄЄЄЄЄ2!"
Скриншоты:


Последний раз редактировалось: Sunnat1999 (2016-04-21 22:54), всего редактировалось 25 раз(а)

Создавать темы 08-Фев-2016 17:46

[Профиль]  [ЛС] 

Sunnat1999 ®

Стаж: 4 года 7 месяцев

Сообщений: 756

Симпатии: 416

ДОБАВЛЕНА 2 СЕРИЯ! ПОЖАЛУЙСТА ОБНОВИТЕ ТОРРЕНТ

Создавать темы 09-Фев-2016 18:05

[Профиль]  [ЛС] 

Sunnat1999 ®

Стаж: 4 года 7 месяцев

Сообщений: 756

Симпатии: 416

ДОБАВЛЕНА 3 СЕРИЯ! ПОЖАЛУЙСТА ОБНОВИТЕ ТОРРЕНТ

Создавать темы 10-Фев-2016 17:40

[Профиль]  [ЛС] 

Sunnat1999 ®

Стаж: 4 года 7 месяцев

Сообщений: 756

Симпатии: 416

ДОБАВЛЕНА 4 СЕРИЯ! ПОЖАЛУЙСТА ОБНОВИТЕ ТОРРЕНТ

Создавать темы 11-Фев-2016 18:10

[Профиль]  [ЛС] 

Sunnat1999 ®

Стаж: 4 года 7 месяцев

Сообщений: 756

Симпатии: 416

ДОБАВЛЕНА 5 СЕРИЯ! ПОЖАЛУЙСТА ОБНОВИТЕ ТОРРЕНТ

Создавать темы 15-Фев-2016 17:24

[Профиль]  [ЛС] 

Sunnat1999 ®

Стаж: 4 года 7 месяцев

Сообщений: 756

Симпатии: 416

ДОБАВЛЕНА 6 СЕРИЯ! ПОЖАЛУЙСТА ОБНОВИТЕ ТОРРЕНТ

Создавать темы 16-Фев-2016 17:19

[Профиль]  [ЛС] 

Sunnat1999 ®

Стаж: 4 года 7 месяцев

Сообщений: 756

Симпатии: 416

ДОБАВЛЕНА 7 СЕРИЯ! ПОЖАЛУЙСТА ОБНОВИТЕ ТОРРЕНТ

Создавать темы 17-Фев-2016 17:08

[Профиль]  [ЛС] 

Sunnat1999 ®

Стаж: 4 года 7 месяцев

Сообщений: 756

Симпатии: 416

ДОБАВЛЕНА 8 СЕРИЯ! ПОЖАЛУЙСТА ОБНОВИТЕ ТОРРЕНТ

Создавать темы 18-Фев-2016 18:19

[Профиль]  [ЛС] 

Sunnat1999 ®

Стаж: 4 года 7 месяцев

Сообщений: 756

Симпатии: 416

ДОБАВЛЕНА 9 СЕРИЯ! ПОЖАЛУЙСТА ОБНОВИТЕ ТОРРЕНТ

Создавать темы 19-Фев-2016 16:50

[Профиль]  [ЛС] 

Sunnat1999 ®

Стаж: 4 года 7 месяцев

Сообщений: 756

Симпатии: 416

ДОБАВЛЕНА 10 СЕРИЯ! ПОЖАЛУЙСТА ОБНОВИТЕ ТОРРЕНТ

Создавать темы 24-Фев-2016 16:46

[Профиль]  [ЛС] 

Sunnat1999 ®

Стаж: 4 года 7 месяцев

Сообщений: 756

Симпатии: 416

ДОБАВЛЕНА 11 СЕРИЯ! ПОЖАЛУЙСТА ОБНОВИТЕ ТОРРЕНТ

Создавать темы 25-Фев-2016 17:56

[Профиль]  [ЛС] 

Sunnat1999 ®

Стаж: 4 года 7 месяцев

Сообщений: 756

Симпатии: 416

ДОБАВЛЕНА 12 СЕРИЯ! ПОЖАЛУЙСТА ОБНОВИТЕ ТОРРЕНТ

Создавать темы 29-Фев-2016 19:10

[Профиль]  [ЛС] 

Sunnat1999 ®

Стаж: 4 года 7 месяцев

Сообщений: 756

Симпатии: 416

ДОБАВЛЕНА 13 СЕРИЯ! ПОЖАЛУЙСТА ОБНОВИТЕ ТОРРЕНТ

Создавать темы 01-Мар-2016 17:01

[Профиль]  [ЛС] 

Sunnat1999 ®

Стаж: 4 года 7 месяцев

Сообщений: 756

Симпатии: 416

ДОБАВЛЕНА 14 СЕРИЯ! ПОЖАЛУЙСТА ОБНОВИТЕ ТОРРЕНТ

Создавать темы 02-Мар-2016 19:36

[Профиль]  [ЛС] 

Sunnat1999 ®

Стаж: 4 года 7 месяцев

Сообщений: 756

Симпатии: 416

ДОБАВЛЕНА 15 СЕРИЯ! ПОЖАЛУЙСТА ОБНОВИТЕ ТОРРЕНТ

Создавать темы 03-Мар-2016 18:15

[Профиль]  [ЛС] 
Показать сообщения:    
Ответить на тему

Текущее время: 23-Окт 00:24

Часовой пояс: UTC + 5



Вы не можете начинать темы
Вы не можете отвечать на сообщения
Вы не можете редактировать свои сообщения
Вы не можете удалять свои сообщения
Вы не можете голосовать в опросах
Вы не можете прикреплять файлы к сообщениям
Вы не можете скачивать файлы