Лес призраков / The Forest (Джейсон Зада / Jason Zada) [2016, США, ужасы,, WEBRip] [AI-Film, Lava Bear Films] (Dub : [Чистый звук])

Ответить на тему
 

igor1968 ®

Стаж: 5 лет 5 месяцев

Сообщений: 366

Симпатии: 197

Лес призраков / The Forest «Каждый приходит сюда в поиске выхода» Страна:
Жанр: ужасы,
Год выпуска: 2016
Продолжительность: 01:29:21
Перевод: Профессиональный (дублированный)
Доп. инфо о переводе [Чистый звук]
Cубтитры: нет
Режиссер: Джейсон Зада / Jason Zada
В ролях: Натали Дормер, Оуэн Мэкен, Стефани Вогт, Осаму Танпопо, Ясуо Тобисима, Ибуки Канеда, Акико Ивасе, Кикуо Ичикава, Норико Сакура, Йозеф Аоки
Юная американка Сара отправляется на поиски сестры-близняшки, которая таинственным образом исчезла на японском острове Хонсю. Поиски приводят к подножью горы Фудзи, в таинственный лес, который пользуется дурной славой. Сара не подозревала, что она вступает в мрачный мир призраков, злых и измученных душ, которые охотятся на любого, кто блуждает по их мрачному лесу…
Доп. информация:- -сценарий Ник Антоска, Сара Корнвэлл, Бен Кетаи
продюсер Дэвид С. Гойер, Дэвид Линд, Тори Мецгер, ...
оператор Маттиаш Троёлструп
композитор Беар МакКрири
художник Кевин Фиппс, Ясна Драгович, Кикуо Ота, ...
монтаж Джим Флинн
бюджет
$10 000 000
сборы в
$26 191 494
сборы в
+ $4 300 554 = $30 492 048
сборы в
$449 024
зрители
151.4 тыс.
премьера
7 января 2016, ...
премьера
14 января 2016, «Парадиз»
Качество видео: WEBRip
Формат видео: AVI
Видео: Xvid 720x400 25fps 1896 Kbps
Аудио: Dolby AC3 48000Hz stereo 192kbps

MediaInfo

General
Complete name : D:\L3C.Pr1zRaK0ff.2016.D.WEBRip.1400MB.avi
Format : AVI
Format/Info : Audio Video Interleave
File size : 1.36 GiB
Duration : 1h 29mn
Overall bit rate : 2 183 Kbps
Writing application : VirtualDubMod 1.5.10.3 | www.virtualdub-fr.org || (build 2550/release)
Writing library : VirtualDubMod build 2550/release
Video
ID : 0
Format : MPEG-4 Visual
Format profile : Advanced [email protected]
Format settings, BVOP : 2
Format settings, QPel : No
Format settings, GMC : No warppoints
Format settings, Matrix : Default (MPEG)
Codec ID : XVID
Codec ID/Hint : XviD
Duration : 1h 29mn
Bit rate : 1 896 Kbps
Width : 720 pixels
Height : 400 pixels
Display aspect ratio : 16:9
Frame rate : 25.000 fps
Color space : YUV
Chroma subsampling : 4:2:0
Bit depth : 8 bits
Scan type : Progressive
Compression mode : Lossy
Bits/(Pixel*Frame) : 0.263
Stream size : 1.18 GiB (87%)
Writing library : XviD 1.2.1 (UTC 2008-12-04)
Audio
ID : 1
Format : AC-3
Format/Info : Audio Coding 3
Mode extension : CM (complete main)
Format settings, Endianness : Big
Codec ID : 2000
Duration : 1h 29mn
Bit rate mode : Constant
Bit rate : 192 Kbps
Channel(s) : 2 channels
Channel positions : Front: L R
Sampling rate : 48.0 KHz
Compression mode : Lossy
Stream size : 123 MiB (9%)
Alignment : Split accross interleaves
Video: Xvid 720x400 25fps [V: mpeg4 advanced simple profile, yuv420p, 720x400]
Audio: Dolby AC3 48000Hz stereo 192kbps [A: ac3, 48000 Hz, stereo, 192 kb/s]
- - --

Создавать темы 09-Фев-2016 00:34

[Профиль]  [ЛС] 

DrBob

Стаж: 5 лет 5 месяцев

Сообщений: 1

Симпатии: 1

когда раздача???

Создавать темы 09-Фев-2016 09:46

[Профиль]  [ЛС] 

Топик был перенесен из форума Фильмы за 2016 в форум CamRip, DVDScr и т.п.
Каротажник

Создавать темы 09-Фев-2016 09:59

 

igor1968 ®

Стаж: 5 лет 5 месяцев

Сообщений: 366

Симпатии: 197

Настройте торрент клиент как в gif

gif

Чем больше будете отдавать тем быстрее скачаете!

Создавать темы 09-Фев-2016 18:55

[Профиль]  [ЛС] 

Powered by GMC

Стаж: 1 год 9 месяцев

Сообщений: 202

Симпатии: 31

967110Настройте торрент клиент как в gif

gif

Чем больше будете отдавать тем быстрее скачаете!
приоритет раздачи метку снять??? или метку на него??

Создавать темы 10-Фев-2016 06:42

[Профиль]  [ЛС] 

igor1968 ®

Стаж: 5 лет 5 месяцев

Сообщений: 366

Симпатии: 197

967142
967110Настройте торрент клиент как в gif

gif

Чем больше будете отдавать тем быстрее скачаете!
приоритет раздачи метку снять??? или метку на него??
чем больше отдаёшь тем больше качаешь , наоборот галочку поставить .

Создавать темы 10-Фев-2016 07:02

[Профиль]  [ЛС] 

rafaello

Стаж: 3 года 10 месяцев

Сообщений: 11

Симпатии: 2

Фильм классный!!!! Советуй всем смотреть !!!

Создавать темы 16-Фев-2016 01:37

[Профиль]  [ЛС] 
Показать сообщения:    
Ответить на тему

Текущее время: 19-Авг 08:47

Часовой пояс: UTC + 5



Вы не можете начинать темы
Вы не можете отвечать на сообщения
Вы не можете редактировать свои сообщения
Вы не можете удалять свои сообщения
Вы не можете голосовать в опросах
Вы не можете прикреплять файлы к сообщениям
Вы не можете скачивать файлы