Райское дерево / Tree of heaven [10/10] (Ли Чжан су / Lee Jang Soo) [2006 г., драма, TVRip] [RAW] [360p] DVO GREEN TEA

Ответить на тему
 

bbk ®

Стаж: 6 лет 10 месяцев

Сообщений: 435

Симпатии: 479

Райское дерево / Tengoku no ki / Tree of heaven- Год выпуска: 2006
Страна: Южная Корея, Япония
Жанр: Драма
Продолжительность: 10 серий по 60 мин
Перевод: Двухголосый (закадровый) lama и Ustas Alexis
В ролях: Lee Wan в роли Юн-со, Park Shin Hye в роли Ханы, Asami Reina в роли Мэй, Uchida Asahi, Jung Dong Hwan, Kim Chung, Mire Aika
Описание: Хана - молодая девушка, которая уже в детстве потеряла отца. Вначале сериала ее мать возвращается в Японию, с новым мужем и его сыном Юн-со. Мать Юн-со умерла, когда ему исполнилось 10 и после ее смерти его сердце превратилось в льдинку, а сам, стал очень стран им и молчаливым.
Хана сразу - очень полюбила нового братика.
Когда родители отправляются в медовый месяц, мать Ханы оставляет детей у сестры первого мужа, которая также берется управлять их гостиницей. Пока они в отъезде, тетя и ее дочка (за их образ злой мачехи с дочкой я бы дал Оскар) решают злоупотребить доверием матери Ханы. У них рождается планы продать гостиницу для того, чтобы уплатить игровые долги и обучение дочки в колледже.
Несмотря ни на что, Хана находит ключ к холодному сердцу своего нового братика. Его сердце начинает медленно оттаивать.
Но тут Хана со страхом начинает понимать, что она может его полюбить не как брата . Надо что то делать...
Качество: TVRip
Формат: AVI
Видео кодек: XviD
Аудио кодек: MP3
Видео: 624x336, 1300 Кбит/с, 29.970
Аудио: 48.0 KHz, 192 Кбит/с, 2 канала

MediaINFO

General
Complete name : Tree of heaven_01_green-tea.avi
Format : AVI
Format/Info : Audio Video Interleave
File size : 700 MiB
Duration : 1h 5mn
Overall bit rate : 1 490 Kbps
Writing application : VirtualDubMod 1.5.10.2 (build 2540/release)
Writing library : VirtualDubMod build 2540/release
Video #0
ID : 0
Format : MPEG-4 Visual
Format profile : Advanced [email protected]
Format settings, BVOP : 2
Format settings, QPel : No
Format settings, GMC : No warppoints
Format settings, Matrix : Default (H.263)
Codec ID : DX50
Codec ID/Hint : DivX 5
Duration : 1h 5mn
Bit rate : 1 287 Kbps
Width : 624 pixels
Height : 336 pixels
Display aspect ratio : 1.85:1
Frame rate : 29.970 (29970/1000) fps
Color space : YUV
Chroma subsampling : 4:2:0
Bit depth : 8 bits
Scan type : Progressive
Compression mode : Lossy
Bits/(Pixel*Frame) : 0.205
Stream size : 605 MiB (86%)
Writing library : XviD 58
Audio #1
ID : 1
Format : MPEG Audio
Format version : Version 1
Format profile : Layer 3
Mode : Joint stereo
Codec ID : 55
Codec ID/Hint : MP3
Duration : 1h 5mn
Bit rate mode : Constant
Bit rate : 192 Kbps
Channel(s) : 2 channels
Sampling rate : 48.0 KHz
Compression mode : Lossy
Stream size : 90.2 MiB (13%)
Alignment : Aligned on interleaves
Interleave, duration : 33 ms (1.00 video frame)
Interleave, preload duration : 504 ms

Скриншоты



Последний раз редактировалось: bbk (2016-08-04 22:54), всего редактировалось 4 раз(а)

Создавать темы 09-Фев-2016 03:17

[Профиль]  [ЛС] 

Топик был перенесен из форума Редакторы в форум Тестовый форум
bbk

Создавать темы 23-Июн-2016 13:08

 

Топик был перенесен из форума Тестовый форум в форум Полные релизы
bbk

Создавать темы 05-Июл-2016 00:10

 
Показать сообщения:    
Ответить на тему

Текущее время: 19-Сен 18:39

Часовой пояс: UTC + 5



Вы не можете начинать темы
Вы не можете отвечать на сообщения
Вы не можете редактировать свои сообщения
Вы не можете удалять свои сообщения
Вы не можете голосовать в опросах
Вы не можете прикреплять файлы к сообщениям
Вы не можете скачивать файлы