(New Age, Electronic, Instrumental, Classical) Yanni - Sensuous Chill - 2016, FLAC (image+.cue), lossless

Ответить на тему
 

ScorpiuS ®

Стаж: 6 лет 11 месяцев

Сообщений: 206

Симпатии: 122

Yanni / Sensuous Chill
Жанр: New Age, Electronic, Instrumental, Classical
Страна исполнителя (группы): Greece
Год издания: 2016
Издатель (лейбл): YanniWorks/Portrait
Аудиокодек: FLAC (*.flac)
Тип рипа: image+.cue
Битрейт аудио: lossless
Продолжительность: 01:07:41
Наличие сканов в содержимом раздачи: нет
Треклист:
01. Thirst For Life
02. Rapture
03. Drive
04. What You Get
05. Desert Soul
06. 1001
07. The Keeper
08. Whispers In The Dark
09. Seeing You Around
10. Orchid
11. Our Days
12. A Little Too Late
13. Dance For Me
14. Retreat To Dream
15. Test Of Time
16. Can't Wait
17. I'm So

Лог создание рипа

Exact Audio Copy V1.1 from 23. June 2015
EAC extraction logfile from 3. February 2016, 17:30
Yanni / Sensuous Chill
Used drive : TSSTcorpCDDVDW SN-208DN Adapter: 1 ID: 0
Read mode : Secure
Utilize accurate stream : Yes
Defeat audio cache : Yes
Make use of C2 pointers : No
Read offset correction : 6
Overread into Lead-In and Lead-Out : No
Fill up missing offset samples with silence : Yes
Delete leading and trailing silent blocks : No
Null samples used in CRC calculations : Yes
Used interface : Native Win32 interface for Win NT & 2000
Used output format : Internal WAV Routines
Sample format : 44.100 Hz; 16 Bit; Stereo
TOC of the extracted CD
Track | Start | Length | Start sector | End sector
---------------------------------------------------------
1 | 0:00.00 | 3:46.13 | 0 | 16962
2 | 3:46.13 | 3:34.48 | 16963 | 33060
3 | 7:20.61 | 3:55.09 | 33061 | 50694
4 | 11:15.70 | 4:34.59 | 50695 | 71303
5 | 15:50.54 | 3:35.60 | 71304 | 87488
6 | 19:26.39 | 3:53.28 | 87489 | 104991
7 | 23:19.67 | 3:28.61 | 104992 | 120652
8 | 26:48.53 | 3:51.45 | 120653 | 138022
9 | 30:40.23 | 3:38.12 | 138023 | 154384
10 | 34:18.35 | 4:13.73 | 154385 | 173432
11 | 38:32.33 | 4:26.62 | 173433 | 193444
12 | 42:59.20 | 3:54.13 | 193445 | 211007
13 | 46:53.33 | 4:33.17 | 211008 | 231499
14 | 51:26.50 | 3:33.27 | 231500 | 247501
15 | 55:00.02 | 3:55.62 | 247502 | 265188
16 | 58:55.64 | 4:06.71 | 265189 | 283709
17 | 63:02.60 | 4:37.70 | 283710 | 304554
Range status and errors
Selected range
Filename D:\EAC_TEMP\Yanni - Sensuous Chill - 2016 [NNM-Club]\Yanni - Sensuous Chill.wav
Peak level 100.0 %
Extraction speed 5.2 X
Range quality 100.0 %
Test CRC A4223E96
Copy CRC A4223E96
Copy OK
No errors occurred
AccurateRip summary
Track 1 not present in database
Track 2 not present in database
Track 3 not present in database
Track 4 not present in database
Track 5 not present in database
Track 6 not present in database
Track 7 not present in database
Track 8 not present in database
Track 9 not present in database
Track 10 not present in database
Track 11 not present in database
Track 12 not present in database
Track 13 not present in database
Track 14 not present in database
Track 15 not present in database
Track 16 not present in database
Track 17 not present in database
None of the tracks are present in the AccurateRip database
End of status report
---- CUETools DB Plugin V2.1.6
[CTDB TOCID: w_Vqm7fajRRDnCECLCB3KgfpBX4-] disk not present in database
Submit result: w_Vqm7fajRRDnCECLCB3KgfpBX4- has been uploaded
==== Log checksum 6E5449D525F1AE5BB70A8611CC87601BAB745624C7A8CECB9EF9FF19E401C89C ====

Содержание индексной карты (.CUE)

REM GENRE "New Age"
REM DATE 2016
REM DISCID DE0FDC11
REM COMMENT "ExactAudioCopy v1.1"
PERFORMER "Yanni"
TITLE "Sensuous Chill"
FILE "Yanni - Sensuous Chill.flac" WAVE
TRACK 01 AUDIO
TITLE "Thirst for Life"
PERFORMER "Yanni"
INDEX 01 00:00:00
TRACK 02 AUDIO
TITLE "Rapture"
PERFORMER "Yanni"
INDEX 01 03:46:13
TRACK 03 AUDIO
TITLE "Drive"
PERFORMER "Yanni"
INDEX 01 07:20:61
TRACK 04 AUDIO
TITLE "What You Get"
PERFORMER "Yanni"
INDEX 01 11:15:70
TRACK 05 AUDIO
TITLE "Desert Soul"
PERFORMER "Yanni"
INDEX 01 15:50:54
TRACK 06 AUDIO
TITLE "1001"
PERFORMER "Yanni"
INDEX 01 19:26:39
TRACK 07 AUDIO
TITLE "The Keeper"
PERFORMER "Yanni"
INDEX 01 23:19:67
TRACK 08 AUDIO
TITLE "Whispers in the Dark"
PERFORMER "Yanni"
INDEX 01 26:48:53
TRACK 09 AUDIO
TITLE "Seeing You Around"
PERFORMER "Yanni"
INDEX 01 30:40:23
TRACK 10 AUDIO
TITLE "Orchid"
PERFORMER "Yanni"
INDEX 01 34:18:35
TRACK 11 AUDIO
TITLE "Our Days"
PERFORMER "Yanni"
INDEX 01 38:32:33
TRACK 12 AUDIO
TITLE "A Little Too Late"
PERFORMER "Yanni"
INDEX 01 42:59:20
TRACK 13 AUDIO
TITLE "Dance for Me"
PERFORMER "Yanni"
INDEX 01 46:53:33
TRACK 14 AUDIO
TITLE "Retreat to Dream"
PERFORMER "Yanni"
INDEX 01 51:26:50
TRACK 15 AUDIO
TITLE "Test of Time"
PERFORMER "Yanni"
INDEX 01 55:00:02
TRACK 16 AUDIO
TITLE "Can't Wait"
PERFORMER "Yanni"
INDEX 01 58:55:64
TRACK 17 AUDIO
TITLE "I'm So"
PERFORMER "Yanni"
INDEX 01 63:02:60

Создавать темы 09-Фев-2016 09:33

[Профиль]  [ЛС] 
Показать сообщения:    
Ответить на тему

Текущее время: 20-Авг 05:13

Часовой пояс: UTC + 5



Вы не можете начинать темы
Вы не можете отвечать на сообщения
Вы не можете редактировать свои сообщения
Вы не можете удалять свои сообщения
Вы не можете голосовать в опросах
Вы не можете прикреплять файлы к сообщениям
Вы не можете скачивать файлы