(House, Electro House) [2xCD] Eric Prydz - Opus - 2016, FLAC (tracks+.cue), lossless

Ответить на тему
 

ScorpiuS ®

Стаж: 6 лет 11 месяцев

Сообщений: 206

Симпатии: 122

Eric Prydz / Opus
Жанр: House, Electro House
Носитель: CD
Год издания: 2016
Издатель (лейбл): Astralwerks
Аудиокодек: FLAC (*.flac)
Тип рипа: tracks+.cue
Битрейт аудио: lossless
Продолжительность: 02:05:03
Источник (релизер): what.cd
Наличие сканов в содержимом раздачи: нет
Треклист:
CD 1
01. Eric Prydz - Liam [05:45]
02. Eric Prydz - Black Dyce [06:18]
03. Eric Prydz - Collider [05:24]
04. Eric Prydz - Som Sas [06:37]
05. Eric Prydz - Last Dragon [06:46]
06. Eric Prydz - Moody Mondays (feat. The Cut) [04:43]
07. Eric Prydz - Floj [07:46]
08. Eric Prydz - Trubble [07:49]
09. Eric Prydz - Klepht [06:09]
10. Eric Prydz - Eclipse [06:00]
CD 2
01. Eric Prydz - Sunset at Cafe Mambo [06:31]
02. Eric Prydz - Breathe (feat. Rob Swire) [03:10]
03. Eric Prydz - Generate [07:12]
04. Eric Prydz - Oddity [08:06]
05. Eric Prydz - Mija (re-scored) [06:32]
06. Eric Prydz - Every Day [07:15]
07. Eric Prydz - Liberate [06:45]
08. Eric Prydz - The Matrix [07:17]
09. Eric Prydz - Opus [09:05]

Logs and sheets

Log EAC CD 1

Exact Audio Copy V1.1 from 23. June 2015
EAC extraction logfile from 5. February 2016, 9:55
Eric Prydz / Opus
Used drive : TSSTcorpCDDVDW SE-208DB Adapter: 1 ID: 0
Read mode : Secure
Utilize accurate stream : Yes
Defeat audio cache : Yes
Make use of C2 pointers : No
Read offset correction : 6
Overread into Lead-In and Lead-Out : No
Fill up missing offset samples with silence : Yes
Delete leading and trailing silent blocks : No
Null samples used in CRC calculations : Yes
Used interface : Native Win32 interface for Win NT & 2000
Gap handling : Appended to previous track
Used output format : User Defined Encoder
Selected bitrate : 1024 kBit/s
Quality : High
Add ID3 tag : No
Command line compressor : C:\Program Files (x86)\Exact Audio Copy\Flac\flac.exe
Additional command line options : -8 -V -T "ARTIST=%artist%" -T "TITLE=%title%" -T "ALBUM=%albumtitle%" -T "DATE=%year%" -T "TRACKNUMBER=%tracknr%" -T "GENRE=%genre%" -T "PERFORMER=%albuminterpret%" -T "COMPOSER=%composer%" %haslyrics%--tag-from-file=LYRICS="%lyricsfile%"%haslyrics% -T "ALBUMARTIST=%albumartist%" -T "DISCNUMBER=%cdnumber%" -T "TOTALDISCS=%totalcds%" -T "TOTALTRACKS=%numtracks%" -T "COMMENT=%comment%" %source% -o %dest%
TOC of the extracted CD
Track | Start | Length | Start sector | End sector
---------------------------------------------------------
1 | 0:00.00 | 5:44.24 | 0 | 25823
2 | 5:44.24 | 6:17.09 | 25824 | 54107
3 | 12:01.33 | 5:23.66 | 54108 | 78398
4 | 17:25.24 | 6:37.00 | 78399 | 108173
5 | 24:02.24 | 6:45.71 | 108174 | 138619
6 | 30:48.20 | 4:42.36 | 138620 | 159805
7 | 35:30.56 | 7:45.63 | 159806 | 194743
8 | 43:16.44 | 7:48.46 | 194744 | 229889
9 | 51:05.15 | 6:08.39 | 229890 | 257528
10 | 57:13.54 | 5:59.60 | 257529 | 284513
Track 1
Filename E:\Music\Eric Prydz - Opus (2016) [FLAC]\DISC ONE\01 - Liam.wav
Pre-gap length 0:00:02.00
Peak level 100.0 %
Extraction speed 3.0 X
Track quality 100.0 %
Test CRC 7852D9FE
Copy CRC 7852D9FE
Track not present in AccurateRip database
Copy OK
Track 2
Filename E:\Music\Eric Prydz - Opus (2016) [FLAC]\DISC ONE\02 - Black Dyce.wav
Pre-gap length 0:00:01.05
Peak level 100.0 %
Extraction speed 3.0 X
Track quality 99.9 %
Test CRC 242886DD
Copy CRC 242886DD
Track not present in AccurateRip database
Copy OK
Track 3
Filename E:\Music\Eric Prydz - Opus (2016) [FLAC]\DISC ONE\03 - Collider.wav
Pre-gap length 0:00:01.89
Peak level 100.0 %
Extraction speed 3.7 X
Track quality 100.0 %
Test CRC 70784179
Copy CRC 70784179
Track not present in AccurateRip database
Copy OK
Track 4
Filename E:\Music\Eric Prydz - Opus (2016) [FLAC]\DISC ONE\04 - Som Sas.wav
Pre-gap length 0:00:01.24
Peak level 100.0 %
Extraction speed 4.0 X
Track quality 100.0 %
Test CRC 6534E113
Copy CRC 6534E113
Track not present in AccurateRip database
Copy OK
Track 5
Filename E:\Music\Eric Prydz - Opus (2016) [FLAC]\DISC ONE\05 - Last Dragon.wav
Peak level 100.0 %
Extraction speed 4.3 X
Track quality 100.0 %
Test CRC 0A2B08C9
Copy CRC 0A2B08C9
Track not present in AccurateRip database
Copy OK
Track 6
Filename E:\Music\Eric Prydz - Opus (2016) [FLAC]\DISC ONE\06 - Moody Mondays (feat. The Cut).wav
Pre-gap length 0:00:01.90
Peak level 100.0 %
Extraction speed 4.4 X
Track quality 100.0 %
Test CRC 548CE715
Copy CRC 548CE715
Track not present in AccurateRip database
Copy OK
Track 7
Filename E:\Music\Eric Prydz - Opus (2016) [FLAC]\DISC ONE\07 - Floj.wav
Pre-gap length 0:00:00.16
Peak level 100.0 %
Extraction speed 4.8 X
Track quality 100.0 %
Test CRC 4C502FAA
Copy CRC 4C502FAA
Track not present in AccurateRip database
Copy OK
Track 8
Filename E:\Music\Eric Prydz - Opus (2016) [FLAC]\DISC ONE\08 - Trubble.wav
Peak level 100.0 %
Extraction speed 5.1 X
Track quality 100.0 %
Test CRC AEC62985
Copy CRC AEC62985
Track not present in AccurateRip database
Copy OK
Track 9
Filename E:\Music\Eric Prydz - Opus (2016) [FLAC]\DISC ONE\09 - Klepht.wav
Peak level 100.0 %
Extraction speed 4.5 X
Track quality 99.9 %
Test CRC CCE51252
Copy CRC CCE51252
Track not present in AccurateRip database
Copy OK
Track 10
Filename E:\Music\Eric Prydz - Opus (2016) [FLAC]\DISC ONE\10 - Eclipse.wav
Pre-gap length 0:00:02.57
Peak level 100.0 %
Extraction speed 5.3 X
Track quality 100.0 %
Test CRC 851BFD53
Copy CRC 851BFD53
Track not present in AccurateRip database
Copy OK
None of the tracks are present in the AccurateRip database
No errors occurred
End of status report
---- CUETools DB Plugin V2.1.6
[CTDB TOCID: 0JdHOkWx.yeiXDc5psfLWk.fvUs-] found
Submit result: 0JdHOkWx.yeiXDc5psfLWk.fvUs- has been confirmed
Track | CTDB Status
1 | (1/1) Accurately ripped
2 | (1/1) Accurately ripped
3 | (1/1) Accurately ripped
4 | (1/1) Accurately ripped
5 | (1/1) Accurately ripped
6 | (1/1) Accurately ripped
7 | (1/1) Accurately ripped
8 | (1/1) Accurately ripped
9 | (1/1) Accurately ripped
10 | (1/1) Accurately ripped
==== Log checksum BAE28EA81C0978883CCA17617364CE174B45C527452179E10091FBF2CE6FD57B ====

cue CD 1

REM GENRE Dance
REM DATE 2016
REM DISCID 810ED10A
REM COMMENT "ExactAudioCopy v1.1"
CATALOG 0602547275325
PERFORMER "Eric Prydz"
TITLE "Opus"
FILE "01 - Liam.wav" WAVE
TRACK 01 AUDIO
TITLE "Liam"
PERFORMER "Eric Prydz"
ISRC GBUM71507487
INDEX 01 00:00:00
TRACK 02 AUDIO
TITLE "Black Dyce"
PERFORMER "Eric Prydz"
ISRC GBUM71507488
INDEX 00 05:43:20
FILE "02 - Black Dyce.wav" WAVE
INDEX 01 00:00:00
TRACK 03 AUDIO
TITLE "Collider"
PERFORMER "Eric Prydz"
ISRC GBUM71507489
INDEX 00 06:15:17
FILE "03 - Collider.wav" WAVE
INDEX 01 00:00:00
TRACK 04 AUDIO
TITLE "Som Sas"
PERFORMER "Eric Prydz"
ISRC GBUM71507490
INDEX 00 05:22:48
FILE "04 - Som Sas.wav" WAVE
INDEX 01 00:00:00
FILE "05 - Last Dragon.wav" WAVE
TRACK 05 AUDIO
TITLE "Last Dragon"
PERFORMER "Eric Prydz"
ISRC GBUM71507491
INDEX 01 00:00:00
TRACK 06 AUDIO
TITLE "Moody Mondays (feat. The Cut)"
PERFORMER "Eric Prydz"
ISRC GBUM71507492
INDEX 00 06:44:03
FILE "06 - Moody Mondays (feat. The Cut).wav" WAVE
INDEX 01 00:00:00
TRACK 07 AUDIO
TITLE "Floj"
PERFORMER "Eric Prydz"
ISRC GBUM71507493
INDEX 00 04:42:24
FILE "07 - Floj.wav" WAVE
INDEX 01 00:00:00
FILE "08 - Trubble.wav" WAVE
TRACK 08 AUDIO
TITLE "Trubble"
PERFORMER "Eric Prydz"
ISRC GBUM71507494
INDEX 01 00:00:00
FILE "09 - Klepht.wav" WAVE
TRACK 09 AUDIO
TITLE "Klepht"
PERFORMER "Eric Prydz"
ISRC GBUM71507495
INDEX 01 00:00:00
TRACK 10 AUDIO
TITLE "Eclipse"
PERFORMER "Eric Prydz"
ISRC GBUM71507496
INDEX 00 06:05:71
FILE "10 - Eclipse.wav" WAVE
INDEX 01 00:00:00

Log EAC CD 2

Exact Audio Copy V1.1 from 23. June 2015
EAC extraction logfile from 5. February 2016, 10:30
Eric Prydz / Opus
Used drive : TSSTcorpCDDVDW SE-208DB Adapter: 1 ID: 0
Read mode : Secure
Utilize accurate stream : Yes
Defeat audio cache : Yes
Make use of C2 pointers : No
Read offset correction : 6
Overread into Lead-In and Lead-Out : No
Fill up missing offset samples with silence : Yes
Delete leading and trailing silent blocks : No
Null samples used in CRC calculations : Yes
Used interface : Native Win32 interface for Win NT & 2000
Gap handling : Appended to previous track
Used output format : User Defined Encoder
Selected bitrate : 1024 kBit/s
Quality : High
Add ID3 tag : No
Command line compressor : C:\Program Files (x86)\Exact Audio Copy\Flac\flac.exe
Additional command line options : -8 -V -T "ARTIST=%artist%" -T "TITLE=%title%" -T "ALBUM=%albumtitle%" -T "DATE=%year%" -T "TRACKNUMBER=%tracknr%" -T "GENRE=%genre%" -T "PERFORMER=%albuminterpret%" -T "COMPOSER=%composer%" %haslyrics%--tag-from-file=LYRICS="%lyricsfile%"%haslyrics% -T "ALBUMARTIST=%albumartist%" -T "DISCNUMBER=%cdnumber%" -T "TOTALDISCS=%totalcds%" -T "TOTALTRACKS=%numtracks%" -T "COMMENT=%comment%" %source% -o %dest%
TOC of the extracted CD
Track | Start | Length | Start sector | End sector
---------------------------------------------------------
1 | 0:00.00 | 6:30.50 | 0 | 29299
2 | 6:30.50 | 3:09.49 | 29300 | 43523
3 | 9:40.24 | 7:11.08 | 43524 | 75856
4 | 16:51.32 | 8:05.36 | 75857 | 112267
5 | 24:56.68 | 6:31.32 | 112268 | 141624
6 | 31:28.25 | 7:14.50 | 141625 | 174224
7 | 38:43.00 | 6:44.60 | 174225 | 204584
8 | 45:27.60 | 7:16.61 | 204585 | 237345
9 | 52:44.46 | 9:04.19 | 237346 | 278164
Track 1
Filename E:\Music\Eric Prydz - Opus (2016) [FLAC]\DISC TWO\01 - Sunset at Cafe Mambo.wav
Pre-gap length 0:00:02.00
Peak level 100.0 %
Extraction speed 3.1 X
Track quality 100.0 %
Test CRC EE2B45FA
Copy CRC EE2B45FA
Track not present in AccurateRip database
Copy OK
Track 2
Filename E:\Music\Eric Prydz - Opus (2016) [FLAC]\DISC TWO\02 - Breathe (feat. Rob Swire).wav
Pre-gap length 0:00:01.69
Peak level 100.0 %
Extraction speed 3.1 X
Track quality 100.0 %
Test CRC 7361E745
Copy CRC 7361E745
Track not present in AccurateRip database
Copy OK
Track 3
Filename E:\Music\Eric Prydz - Opus (2016) [FLAC]\DISC TWO\03 - Generate.wav
Pre-gap length 0:00:00.06
Peak level 100.0 %
Extraction speed 3.8 X
Track quality 100.0 %
Test CRC 731758CB
Copy CRC 731758CB
Track not present in AccurateRip database
Copy OK
Track 4
Filename E:\Music\Eric Prydz - Opus (2016) [FLAC]\DISC TWO\04 - Oddity.wav
Peak level 100.0 %
Extraction speed 4.2 X
Track quality 100.0 %
Test CRC 02156E7E
Copy CRC 02156E7E
Track not present in AccurateRip database
Copy OK
Track 5
Filename E:\Music\Eric Prydz - Opus (2016) [FLAC]\DISC TWO\05 - Mija (re-scored).wav
Pre-gap length 0:00:01.48
Peak level 100.0 %
Extraction speed 3.8 X
Track quality 99.9 %
Test CRC 5CE25E96
Copy CRC 5CE25E96
Track not present in AccurateRip database
Copy OK
Track 6
Filename E:\Music\Eric Prydz - Opus (2016) [FLAC]\DISC TWO\06 - Every Day.wav
Pre-gap length 0:00:01.42
Peak level 100.0 %
Extraction speed 4.7 X
Track quality 100.0 %
Test CRC 9B61A4E5
Copy CRC 9B61A4E5
Track not present in AccurateRip database
Copy OK
Track 7
Filename E:\Music\Eric Prydz - Opus (2016) [FLAC]\DISC TWO\07 - Liberate.wav
Pre-gap length 0:00:00.14
Peak level 100.0 %
Extraction speed 4.9 X
Track quality 100.0 %
Test CRC D84AEC08
Copy CRC D84AEC08
Track not present in AccurateRip database
Copy OK
Track 8
Filename E:\Music\Eric Prydz - Opus (2016) [FLAC]\DISC TWO\08 - The Matrix.wav
Pre-gap length 0:00:00.89
Peak level 100.0 %
Extraction speed 5.1 X
Track quality 100.0 %
Test CRC D65D7064
Copy CRC D65D7064
Track not present in AccurateRip database
Copy OK
Track 9
Filename E:\Music\Eric Prydz - Opus (2016) [FLAC]\DISC TWO\09 - Opus.wav
Peak level 100.0 %
Extraction speed 5.4 X
Track quality 100.0 %
Test CRC 8A90977C
Copy CRC 8A90977C
Track not present in AccurateRip database
Copy OK
None of the tracks are present in the AccurateRip database
No errors occurred
End of status report
---- CUETools DB Plugin V2.1.6
[CTDB TOCID: r9nXkpiZvjrQf3xXb.6PMiTNhQM-] found
Submit result: r9nXkpiZvjrQf3xXb.6PMiTNhQM- has been confirmed
Track | CTDB Status
1 | (1/1) Accurately ripped
2 | (1/1) Accurately ripped
3 | (1/1) Accurately ripped
4 | (1/1) Accurately ripped
5 | (1/1) Accurately ripped
6 | (1/1) Accurately ripped
7 | (1/1) Accurately ripped
8 | (1/1) Accurately ripped
9 | (1/1) Accurately ripped
==== Log checksum 9FD5D6339FAB80473B08301EB1FBBB5FCDA67AA6337B0779DF4359337ACA7EC3 ====

cue CD 2

REM GENRE Dance
REM DATE 2016
REM DISCID 7C0E7C09
REM COMMENT "ExactAudioCopy v1.1"
PERFORMER "Eric Prydz"
TITLE "Opus"
FILE "01 - Sunset at Cafe Mambo.wav" WAVE
TRACK 01 AUDIO
TITLE "Sunset at Cafe Mambo"
PERFORMER "Eric Prydz"
ISRC GBUM71507497
INDEX 01 00:00:00
TRACK 02 AUDIO
TITLE "Breathe (feat. Rob Swire)"
PERFORMER "Eric Prydz"
ISRC GBUM71507498
INDEX 00 06:28:73
FILE "02 - Breathe (feat. Rob Swire).wav" WAVE
INDEX 01 00:00:00
TRACK 03 AUDIO
TITLE "Generate"
PERFORMER "Eric Prydz"
ISRC GBUM71507634
INDEX 00 03:09:44
FILE "03 - Generate.wav" WAVE
INDEX 01 00:00:00
FILE "04 - Oddity.wav" WAVE
TRACK 04 AUDIO
TITLE "Oddity"
PERFORMER "Eric Prydz"
ISRC GBUM71507499
INDEX 01 00:00:00
TRACK 05 AUDIO
TITLE "Mija (re-scored)"
PERFORMER "Eric Prydz"
ISRC GBUM71507500
INDEX 00 08:04:00
FILE "05 - Mija (re-scored).wav" WAVE
INDEX 01 00:00:00
TRACK 06 AUDIO
TITLE "Every Day"
PERFORMER "Eric Prydz"
ISRC GBUM71507635
INDEX 00 06:30:00
FILE "06 - Every Day.wav" WAVE
INDEX 01 00:00:00
TRACK 07 AUDIO
TITLE "Liberate"
PERFORMER "Eric Prydz"
ISRC GBUM71507633
INDEX 00 07:14:39
FILE "07 - Liberate.wav" WAVE
INDEX 01 00:00:00
TRACK 08 AUDIO
TITLE "The Matrix"
PERFORMER "Eric Prydz"
ISRC GBUM71507501
INDEX 00 06:43:68
FILE "08 - The Matrix.wav" WAVE
INDEX 01 00:00:00
FILE "09 - Opus.wav" WAVE
TRACK 09 AUDIO
TITLE "Opus"
PERFORMER "Eric Prydz"
ISRC GB6CM1500105
INDEX 01 00:00:00

Создавать темы 09-Фев-2016 09:46

[Профиль]  [ЛС] 
Показать сообщения:    
Ответить на тему

Текущее время: 20-Авг 18:43

Часовой пояс: UTC + 5



Вы не можете начинать темы
Вы не можете отвечать на сообщения
Вы не можете редактировать свои сообщения
Вы не можете удалять свои сообщения
Вы не можете голосовать в опросах
Вы не можете прикреплять файлы к сообщениям
Вы не можете скачивать файлы