Труп Анны Фритц / El cadaver de Anna Fritz (Гектор Эрнандес / Héctor Hernández) [2015, Испания, драма, HDRip-AVC] L1 (Хихикающий доктор)

Ответить на тему
 

kat222000 ®

Стаж: 6 лет 5 месяцев

Сообщений: 608

Симпатии: 1055

Труп Анны Фритц / El cadaver de Anna Fritz -Страна: Испания
Жанр: драма
Год выпуска: 2015
Продолжительность: 01:11:07
Перевод: Любительский (одноголосный, закадровый) (Хихикающий доктор)
Субтитры: нет
Навигация по главам: нет-Режиссер: Гектор Эрнандес / Héctor Hernández-В ролях: Альберт Карбо, Альба Рибас, Бернат Саумелл, Кристиан Валенсиа-Описание: Анна Фриц, известная и красивая актриса, недавно умерла. Трое молодых людей проникли в морг, чтобы увидеть ее голой. Очарованные ее красотой, они решили заняться с ней сексом...-Возраст: зрителям, достигшим 18 лет-Рейтинг MPAA: лицам до 17 лет обязательно присутствие взрослого-Качество видео: HDRip-AVC
Формат видео: MKV
Видео кодек: AVC
Аудио кодек: MP3
Видео: 720x384 (1.875), 25.000 fps, AVC ~2 375 kbps avg, 0.343 bit/pixel
Аудио: 44.1 kHz, MP3, 2/0 (L,R), ~192.00 kbps avg (Русский | L1)-

〤 ОтчетМедиаИнфо 〤

General
Unique ID : 183541275933977792328254224814071956378 (0x8A14C391425806E491CA028807F9439A)
Complete name : E:\HD\Кино без границ\The.Corpse.Of.Anna.Fritz.2015.Xixidok.mkv.!ut
Format : Matroska
Format version : Version 1
File size : 1.30 GiB
Duration : 1h 11mn
Overall bit rate : 2 618 Kbps
Encoded date : UTC 2016-02-06 17:34:14
Writing application : mkvmerge v2.3.0 ('Freak U') built on Sep 8 2008 18:32:16
Writing library : libebml v0.7.7 + libmatroska v0.8.1
Video
ID : 1
Format : AVC
Format/Info : Advanced Video Codec
Format profile : [email protected]
Format settings, CABAC : Yes
Format settings, ReFrames : 4 frames
Codec ID : V_MPEG4/ISO/AVC
Duration : 1h 11mn
Bit rate : 2 374 Kbps
Nominal bit rate : 2 500 Kbps
Width : 720 pixels
Height : 384 pixels
Display aspect ratio : 1.85:1
Frame rate mode : Constant
Frame rate : 25.000 fps
Color space : YUV
Chroma subsampling : 4:2:0
Bit depth : 8 bits
Scan type : Progressive
Bits/(Pixel*Frame) : 0.343
Stream size : 1.18 GiB (91%)
Writing library : x264 core 142 r2479 dd79a61
Encoding settings : cabac=1 / ref=1 / deblock=1:0:0 / analyse=0x3:0x113 / me=hex / subme=2 / psy=1 / psy_rd=1.00:0.00 / mixed_ref=0 / me_range=16 / chroma_me=1 / trellis=0 / 8x8dct=1 / cqm=0 / deadzone=21,11 / fast_pskip=1 / chroma_qp_offset=0 / threads=6 / lookahead_threads=2 / sliced_threads=0 / nr=0 / decimate=1 / interlaced=0 / bluray_compat=0 / constrained_intra=0 / bframes=3 / b_pyramid=2 / b_adapt=1 / b_bias=0 / direct=1 / weightb=1 / open_gop=0 / weightp=1 / keyint=250 / keyint_min=25 / scenecut=40 / intra_refresh=0 / rc_lookahead=10 / rc=abr / mbtree=1 / bitrate=2500 / ratetol=1.0 / qcomp=0.60 / qpmin=0 / qpmax=69 / qpstep=4 / vbv_maxrate=62500 / vbv_bufsize=78125 / nal_hrd=none / filler=0 / ip_ratio=1.40 / aq=1:1.00
Default : Yes
Forced : No
Color range : Limited
Color primaries : BT.709
Transfer characteristics : BT.709
Matrix coefficients : BT.709
Audio
ID : 2
Format : MPEG Audio
Format version : Version 1
Format profile : Layer 3
Codec ID : A_MPEG/L3
Codec ID/Hint : MP3
Duration : 1h 11mn
Bit rate mode : Constant
Bit rate : 192 Kbps
Channel(s) : 2 channels
Sampling rate : 44.1 KHz
Compression mode : Lossy
Delay relative to video : -80ms
Stream size : 97.7 MiB (7%)
Default : Yes
Forced : No
-

〤 Скриншоты 〤



- © Оформление by kat222000

Создавать темы 10-Фев-2016 22:12

[Профиль]  [ЛС] 

Evropa_uzb

Стаж: 5 лет 3 месяца

Сообщений: 98

Симпатии: 5

спасибо kat222000 !!!

Комментарий от kat222000


Всегда пожалуйста!

Создавать темы 11-Фев-2016 21:56

[Профиль]  [ЛС] 
Показать сообщения:    
Ответить на тему

Текущее время: 24-Сен 19:03

Часовой пояс: UTC + 5



Вы не можете начинать темы
Вы не можете отвечать на сообщения
Вы не можете редактировать свои сообщения
Вы не можете удалять свои сообщения
Вы не можете голосовать в опросах
Вы не можете прикреплять файлы к сообщениям
Вы не можете скачивать файлы