Тайна в их глазах / Secret in Their Eyes (Стивен С. Миллер) [2015, Канада, триллер, детектив, HDRip] Dub [Чистый звук]

Ответить на тему
 

ruhal ®

Стаж: 2 года 4 месяца

Сообщений: 1182

Симпатии: 1836

- -Тайна в их глазах / Secret in Their Eyes- - Страна: Канада
Жанр: триллер, детектив
Год выпуска: 2015
Продолжительность: 01:51:23-Перевод: Профессиональный (дублированный) [Чистый звук]
Cубтитры: нет-Режиссер: Стивен С. Миллер-В ролях: Чиветель Эджиофор, Николь Кидман, Джулия Робертс, Дин Норрис,
Альфред Молина, Джо Коул, Майкл Келли, Зои Грэм, Патрик Дэвис, Эйлин Фогарти-Описание: Привычное течение жизни дружной команды федералов нарушает страшная трагедия:
жестоко убита дочь следователя Джесс… Доказательств недостаточно, и подозреваемого приходится отпустить.
Но Рэй, напарник Джесс, безнадежно влюбленный в их начальницу, не оставляет попыток докопаться до истины.
И вот спустя десятилетие появляется шанс раскрыть тайну гибели девушки. У правосудия, мести и любви нет сроков давности.-Качество видео: HDRip
Формат видео: AVI
Видео: Xvid 720x304 23.976fps 1358kbps
Аудио: Dolby AC3 48000Hz stereo 384kbps
-

MediaInfo

General
Complete name : E:\Films\Sekret.v.ih.GLazaH.2015.D.HDRip.avi
Format : AVI
Format/Info : Audio Video Interleave
File size : 1.37 GiB
Duration : 1h 51mn
Overall bit rate : 1 752 Kbps
Writing application : VirtualDubMod 1.5.10.2 (build 2540/release)
Writing library : VirtualDubMod build 2540/release
Video
ID : 0
Format : MPEG-4 Visual
Format profile : Advanced [email protected]
Format settings, BVOP : 2
Format settings, QPel : No
Format settings, GMC : No warppoints
Format settings, Matrix : Default (MPEG)
Codec ID : XVID
Codec ID/Hint : XviD
Duration : 1h 51mn
Bit rate : 1 359 Kbps
Width : 720 pixels
Height : 304 pixels
Display aspect ratio : 2.35:1
Frame rate : 23.976 fps
Color space : YUV
Chroma subsampling : 4:2:0
Bit depth : 8 bits
Scan type : Progressive
Compression mode : Lossy
Bits/(Pixel*Frame) : 0.259
Stream size : 1.06 GiB (78%)
Writing library : XviD 1.2.1 (UTC 2008-12-04)
Audio
ID : 1
Format : AC-3
Format/Info : Audio Coding 3
Mode extension : CM (complete main)
Format settings, Endianness : Big
Codec ID : 2000
Duration : 1h 51mn
Bit rate mode : Constant
Bit rate : 384 Kbps
Channel(s) : 2 channels
Channel positions : Front: L R
Sampling rate : 48.0 KHz
Bit depth : 16 bits
Compression mode : Lossy
Stream size : 307 MiB (22%)
Alignment : Split accross interleaves
Interleave, duration : 42 ms (1.00 video frame)
Interleave, preload duration : 500 ms

Скриншот c названием фильма

Скриншоты




Создавать темы 11-Фев-2016 00:19

[Профиль]  [ЛС] 
Показать сообщения:    
Ответить на тему

Текущее время: 24-Авг 08:02

Часовой пояс: UTC + 5



Вы не можете начинать темы
Вы не можете отвечать на сообщения
Вы не можете редактировать свои сообщения
Вы не можете удалять свои сообщения
Вы не можете голосовать в опросах
Вы не можете прикреплять файлы к сообщениям
Вы не можете скачивать файлы