Мы уроды / We Are Monsters (Сонни Лагуна, Томмю Виклунд) [2015, Швеция, ужасы, триллер, драма, DVDRip]

Ответить на тему
 

ruhal ®

Стаж: 2 года 8 месяцев

Сообщений: 1181

Симпатии: 1836

- -Мы уроды / We Are Monsters- Страна: Швеция
Жанр: ужасы, триллер, драма
Год выпуска: 2015
Продолжительность: 01:14:08-Перевод: Любительский (одноголосый) (Васька Куролесов)
Cубтитры: нет-Режиссер: Сонни Лагуна, Томмю Виклунд-В ролях: Ханна Ольденбург, Ральф Бек, Ники Норденскьольд, Торбьерн Андерссон, Лина Холл-Описание: Молодая девушка по имени Эмма подвергается нападению таксиста, получает дозу наркоты и вырубается. Очнувшись в какой-то грязной хибаре, Эмма узнаёт, что теперь она на вечеринке, организованной тремя садистами-психопатами. К сожалению или нет, но психопаты не знают, что Эмма чрезвычайно стойкая и целеустремлённая девушка...-Качество видео: DVDRip
Формат видео: AVI
Видео: Xvid 720x288 25fps 1736kbps
Аудио: Dolby AC3 48000Hz stereo 192kbps
-

MediaInfo

General
Complete name : E:\Films\We.Are.Monsters.2015.DVDRip.avi
Format : AVI
Format/Info : Audio Video Interleave
File size : 1.00 GiB
Duration : 1h 14mn
Overall bit rate : 1 938 Kbps
Video
ID : 0
Format : MPEG-4 Visual
Format profile : Advanced [email protected]
Format settings, BVOP : 2
Format settings, QPel : No
Format settings, GMC : No warppoints
Format settings, Matrix : Default (H.263)
Codec ID : XVID
Codec ID/Hint : XviD
Duration : 1h 14mn
Bit rate : 1 736 Kbps
Width : 720 pixels
Height : 288 pixels
Display aspect ratio : 2.500
Frame rate : 25.000 fps
Color space : YUV
Chroma subsampling : 4:2:0
Bit depth : 8 bits
Scan type : Progressive
Compression mode : Lossy
Bits/(Pixel*Frame) : 0.335
Stream size : 921 MiB (90%)
Writing library : XviD 66
Audio
ID : 1
Format : AC-3
Format/Info : Audio Coding 3
Mode extension : CM (complete main)
Format settings, Endianness : Big
Codec ID : 2000
Duration : 1h 14mn
Bit rate mode : Constant
Bit rate : 192 Kbps
Channel(s) : 2 channels
Channel positions : Front: L R
Sampling rate : 48.0 KHz
Bit depth : 16 bits
Compression mode : Lossy
Stream size : 102 MiB (10%)
Alignment : Split accross interleaves
Interleave, duration : 40 ms (1.00 video frame)
Interleave, preload duration : 500 ms

Скриншот c названием фильма

Скриншоты



Создавать темы 11-Фев-2016 12:15

[Профиль]  [ЛС] 

kat222000

Стаж: 6 лет 8 месяцев

Сообщений: 608

Симпатии: 1055

Грайндхаус

Создавать темы 11-Фев-2016 21:03

[Профиль]  [ЛС] 
Показать сообщения:    
Ответить на тему

Текущее время: 17-Дек 12:45

Часовой пояс: UTC + 5



Вы не можете начинать темы
Вы не можете отвечать на сообщения
Вы не можете редактировать свои сообщения
Вы не можете удалять свои сообщения
Вы не можете голосовать в опросах
Вы не можете прикреплять файлы к сообщениям
Вы не можете скачивать файлы