Свободные братья / Step Brothers (Адам МакКэй) [2008, США, Комедия, BDRip] (Dub)

Ответить на тему
 

amirkhan523 ®

Стаж: 2 года 4 месяца

Сообщений: 6

Симпатии: 1

-Свободные братья / Step Brothers- Страна: США
Жанр: Комедия
Год выпуска: 2008
Продолжительность: 01:33:49
Перевод: Профессиональный (дублированный)
Cубтитры: нет
Режиссер: Адам МакКэй
В ролях: Адам Скотт, Андреа Сэвадж, Джон Си Райли, Кэтрин Хан, Логан Манус, Лури Постон, Мэри Стинберген, Ричард Дженкинс, Уилл Феррелл, Элизабет Йозамп.
Описание: Бреннан Хаф — 39-летний домосед и Дейл Добак — 40-летний лежебока неожиданно становятся братьями. Родители-одиночки, всю жизнь обеспечивающие полный пансион своим чадам, решили скрепить союз узами брака после судьбоносной встречи на конференции.Новоиспеченная семья собирается под одной крышей с одной же спальней для сыновей. Естественно, такой расклад не устраивает избалованных «мальчиков» и они начинают ненавидеть друг друга лютой ненавистью. Но неожиданно они обнаруживают, что у них не так уж и много различий. Что, подобно 12-летним подросткам, они оказались заперты во взрослых телах.И тут-то, когда невероятная дружба начала скреплять их братские узы, родители решили развестись. Удастся ли теперь кому-либо разлучить братьев? Или они сами выведут кого угодно из игры?
Доп. информация:
Рейтинг КиноПоиск.Ru: 6.175 (6938)
Рейтинг IMDb: 6.9 (202674)
Бюджет: $65 000 000
Качество видео: BDRip
Формат видео: AVI
Видео: XviD, 720 x304, 1709 Kbps, 23.976fps
Аудио 1 : AC-3, 448 Kbps, 6 CH / Дубляж - Русский
Аудио 2 : AC-3, 384 Kbps, 6 CH / Дубляж - Украинский
Аудио 3 : AC-3, 448 Kbps, 6 CH / Оригинал - Английский

MediaInfo

General
Complete name : C:\Users\Pentium 4\Downloads\Step Brothers.2008.BDRip.avi
Format : AVI
Format/Info : Audio Video Interleave
Format profile : OpenDML
File size : 2.06 GiB
Duration : 1h 37mn
Overall bit rate : 3 013 Kbps
Movie name : Step Brothers.2008.BDRip
Director : rip by maygli
Writing application : VirtualDubModRus 1.5.10.2 (build 2542/release)
Copyright : www.starbit.org (RG Rulya74)
Video
ID : 0
Format : MPEG-4 Visual
Format profile : Advanced [email protected]
Format settings, BVOP : 1
Format settings, QPel : No
Format settings, GMC : No warppoints
Format settings, Matrix : Custom
Codec ID : XVID
Codec ID/Hint : XviD
Duration : 1h 37mn
Bit rate : 1 709 Kbps
Width : 720 pixels
Height : 304 pixels
Display aspect ratio : 2.35:1
Frame rate : 23.976 fps
Color space : YUV
Chroma subsampling : 4:2:0
Bit depth : 8 bits
Scan type : Progressive
Compression mode : Lossy
Bits/(Pixel*Frame) : 0.326
Stream size : 1.17 GiB (57%)
Writing library : XviD 65
Audio #1
ID : 1
Format : AC-3
Format/Info : Audio Coding 3
Mode extension : CM (complete main)
Format settings, Endianness : Big
Codec ID : 2000
Duration : 1h 37mn
Bit rate mode : Constant
Bit rate : 448 Kbps
Channel(s) : 6 channels
Channel positions : Front: L C R, Side: L R, LFE
Sampling rate : 48.0 KHz
Compression mode : Lossy
Stream size : 313 MiB (15%)
Alignment : Split accross interleaves
Interleave, duration : 42 ms (1.00 video frame)
Interleave, preload duratio : 500 ms
Title : Дубляж
Audio #2
ID : 2
Format : AC-3
Format/Info : Audio Coding 3
Mode extension : CM (complete main)
Format settings, Endianness : Big
Codec ID : 2000
Duration : 1h 37mn
Bit rate mode : Constant
Bit rate : 384 Kbps
Channel(s) : 6 channels
Channel positions : Front: L C R, Side: L R, LFE
Sampling rate : 48.0 KHz
Compression mode : Lossy
Stream size : 269 MiB (13%)
Alignment : Split accross interleaves
Interleave, duration : 42 ms (1.00 video frame)
Interleave, preload duratio : 500 ms
Title : Дубляж - Украинский
Audio #3
ID : 3
Format : AC-3
Format/Info : Audio Coding 3
Mode extension : CM (complete main)
Format settings, Endianness : Big
Codec ID : 2000
Duration : 1h 37mn
Bit rate mode : Constant
Bit rate : 448 Kbps
Channel(s) : 6 channels
Channel positions : Front: L C R, Side: L R, LFE
Sampling rate : 48.0 KHz
Compression mode : Lossy
Stream size : 313 MiB (15%)
Alignment : Split accross interleaves
Interleave, duration : 42 ms (1.00 video frame)
Interleave, preload duratio : 500 ms
Title : Оригинал (Английский)

Скриншоты






Последний раз редактировалось: amirkhan523 (2016-02-12 22:59), всего редактировалось 3 раз(а)

Создавать темы 11-Фев-2016 17:15

[Профиль]  [ЛС] 

kat222000

Стаж: 6 лет 6 месяцев

Сообщений: 608

Симпатии: 1055

В данном файле у Вас три аудио дороги....Укажите их все...и не стерео по данным MediaInfo

Создавать темы 11-Фев-2016 21:32

[Профиль]  [ЛС] 
Показать сообщения:    
Ответить на тему

Текущее время: 18-Окт 01:49

Часовой пояс: UTC + 5



Вы не можете начинать темы
Вы не можете отвечать на сообщения
Вы не можете редактировать свои сообщения
Вы не можете удалять свои сообщения
Вы не можете голосовать в опросах
Вы не можете прикреплять файлы к сообщениям
Вы не можете скачивать файлы