Мафия: Игра на выживание (Сарик Андреасян) [2015, фантастика, боевик, WEB-DLRip] [Лицензия]

Ответить на тему
 

ruhal ®

Стаж: 2 года 7 месяцев

Сообщений: 1181

Симпатии: 1836

-Мафия: Игра на выживание- -Жанр: фантастика, боевик
Год выпуска: 2015
Страна: Россия
Продолжительность: 01:30:40-Режиссёр: Сарик Андреасян-В ролях: Виктор Вержбицкий, Вениамин Смехов, Юрий Чурсин, Вячеслав Разбегаев,
Ольга Тумайкина, Андрей Чадов, Вадим Цаллати, Виолетта Гетманская, Наталья Рудова, Евгений Коряковский-Описание: Москва. Далекое будущее. Карточная игра МАФИЯ стала самым популярным в мире телешоу.
Одиннадцать человек соберутся за столом, чтобы выяснить - кто из них Мирный Житель, а кто безжалостная МАФИЯ.
На глазах всего мира готовится коктейль из эмоций и чувств: хитрости, страха, лжи, ненависти, презрения, боли, гордости, страсти, любви и смерти.
Ведь выигравший в схватке получит огромный денежный приз, а проигравший просто умрет...-Качество видео: WEB-DLRip
Формат видео: AVI
Видео: Xvid 720x304 24fps 1908kbps
Аудио: Dolby AC3 48000Hz 6ch 384kbps
-

MediaInfo

General
Complete name : E:\Films\Mafia.Survival.Game.2016.WEB-DLRip.avi
Format : AVI
Format/Info : Audio Video Interleave
File size : 1.46 GiB
Duration : 1h 30mn
Overall bit rate : 2 302 Kbps
Writing application : VirtualDubMod 1.5.10.2 (build 2540/release)
Writing library : VirtualDubMod build 2540/release
Video
ID : 0
Format : MPEG-4 Visual
Format profile : Advanced [email protected]
Format settings, BVOP : 1
Format settings, QPel : No
Format settings, GMC : No warppoints
Format settings, Matrix : Default (MPEG)
Codec ID : XVID
Codec ID/Hint : XviD
Duration : 1h 30mn
Bit rate : 1 909 Kbps
Width : 720 pixels
Height : 304 pixels
Display aspect ratio : 2.35:1
Frame rate : 24.000 fps
Color space : YUV
Chroma subsampling : 4:2:0
Bit depth : 8 bits
Scan type : Progressive
Compression mode : Lossy
Bits/(Pixel*Frame) : 0.363
Stream size : 1.21 GiB (83%)
Writing library : XviD 67
Audio
ID : 1
Format : AC-3
Format/Info : Audio Coding 3
Mode extension : CM (complete main)
Format settings, Endianness : Big
Codec ID : 2000
Duration : 1h 30mn
Bit rate mode : Constant
Bit rate : 384 Kbps
Channel(s) : 6 channels
Channel positions : Front: L C R, Side: L R, LFE
Sampling rate : 48.0 KHz
Bit depth : 16 bits
Compression mode : Lossy
Stream size : 249 MiB (17%)
Alignment : Split accross interleaves
Interleave, duration : 42 ms (1.00 video frame)
Interleave, preload duration : 500 ms

Скриншот c названием фильма

Скриншоты




Создавать темы 12-Фев-2016 10:27

[Профиль]  [ЛС] 

ekobana

Стаж: 5 лет 2 месяца

Сообщений: 26

Симпатии: 14

ГО*Но фильм если честно. актерский талант никудышный, людей гробят, а эмоциональности ноль, даже когда лук чистят эмоций больше, фильм ни о чем

Создавать темы 13-Фев-2016 17:46

[Профиль]  [ЛС] 

gulbadan

Стаж: 7 лет

Сообщений: 35

Симпатии: 4

967396ГО*Но фильм если честно. актерский талант никудышный, людей гробят, а эмоциональности ноль, даже когда лук чистят эмоций больше, фильм ни о чем
ДА

Создавать темы 14-Фев-2016 21:18

[Профиль]  [ЛС] 

Star Line

Стаж: 4 года 1 месяц

Сообщений: 136

Симпатии: 26

Уважаемый создатель и тем более модератор данного релиза. Уведомляю Вас о том, что это не лицензия! У лицензии не бывает рекламы которая тут есть! 00:08:51 а так же во времени 00:35:51 проверьте сами

Создавать темы 05-Мар-2016 12:34

[Профиль]  [ЛС] 

Sanatsura

Стаж: 4 года 10 месяцев

Сообщений: 30

Симпатии: 8

967396ГО*Но фильм если честно. актерский талант никудышный, людей гробят, а эмоциональности ноль, даже когда лук чистят эмоций больше, фильм ни о чем
Вы все еще смотрите РУ фильмы и пытаетесь найти в них смысл?

Создавать темы 07-Мар-2016 12:58

[Профиль]  [ЛС] 

Astrolog

Стаж: 5 лет 5 месяцев

Сообщений: 213

Симпатии: 27

Смотрим. И находим. Не во всех бесспорно.
Даже так напротив: не смотрим не РУ фильмы, потому как смысла в них искать не следует - его либо нет, либо плавает на поверхности, как... Также не во всех не РУ, следует оговориться...

Создавать темы 07-Мар-2016 23:08

[Профиль]  [ЛС] 
Показать сообщения:    
Ответить на тему

Текущее время: 20-Ноя 11:03

Часовой пояс: UTC + 5



Вы не можете начинать темы
Вы не можете отвечать на сообщения
Вы не можете редактировать свои сообщения
Вы не можете удалять свои сообщения
Вы не можете голосовать в опросах
Вы не можете прикреплять файлы к сообщениям
Вы не можете скачивать файлы