Строго на запад / Медленный Запад / Slow West (Джон Маклин / John Maclean) [2015, Великобритания, Новая Зеландия, боевик, триллер, вестерн, BDRip] Dub [iTunes]

Ответить на тему
 

akbardjon ®

Стаж: 1 год 8 месяцев

Сообщений: 4

Симпатии: 1

Строго на запад / Медленный Запад / Slow West
Страна: Великобритания, Новая Зеландия
Жанр: боевик, триллер, вестерн
Год выпуска: 2015
Продолжительность: 01:23:05
Перевод: Профессиональный (дублированный) Доп. инфо о переводе [iTunes]
Cубтитры: нет
Режиссер: Джон Маклин / John Maclean
В ролях: Коди Смит-МакФи, Майкл Фассбендер, Бен Мендельсон, Aorere Paki, Хейден Фрост, Карен Писториус, Kieran Charnock, Эдвин Райт, Joseph Passi, Эндрю Робертт, Сэм Манзанза, Таванда Маниймо
Описание: Фильм рассказывает историю 17-летнего паренька по имени Джей Кавендиш, который путешествует по всей американской границе в поисках девушки, которую он любит. В опасном приключении его сопровождает таинственный путешественник Сайлас.
Качество видео: BDRip
Формат видео: AVI
Видео: XviD: 720x432 (1.67:1), 24 fps, XviD build 73 ~2059 kbps avg, 0.28 bit/pixe
Аудио: AC3: 48 kHz, AC3 Dolby Digital, 3/2 (L,C,R,l,r) + LFE ch, ~384 kbps

MediaInfo

General
Complete name Medlennyj.zapad.2015.D.BDRip_.avi
Format : AVI
Format/Info : Audio Video Interleave
File size : 1.42 GiB
Duration : 1h 23mn
Overall bit rate : 2 451 Kbps
Movie name : Medlennyj.zapad.2015.D.BDRip_
Director :
Genre : Action/Thriller/Western
Writing application : VirtualDubMod 1.5.10.3 (build 2550/release)
Original source form/Name : Movie
Video
ID : 0
Format : MPEG-4 Visual
Format profile : Advanced [email protected]
Format settings, BVOP : Yes
Format settings, QPel : No
Format settings, GMC : No warppoints
Format settings, Matrix : Custom
Codec ID : XVID
Codec ID/Hint : XviD
Duration : 1h 23mn
Bit rate : 2 058 Kbps
Width : 720 pixels
Height : 432 pixels
Display aspect ratio : 1.667
Frame rate : 24.000 fps
Color space : YUV
Chroma subsampling : 4:2:0
Bit depth : 8 bits
Scan type : Progressive
Compression mode : Lossy
Bits/(Pixel*Frame) : 0.276
Stream size : 1.19 GiB (84%)
Writing library : XviD 73
Audio
ID : 1
Format : AC-3
Format/Info : Audio Coding 3
Mode extension : CM (complete main)
Format settings, Endianness : Big
Codec ID : 2000
Duration : 1h 22mn
Bit rate mode : Constant
Bit rate : 384 Kbps
Channel(s) : 6 channels
Channel positions : Front: L C R, Side: L R, LFE
Sampling rate : 48.0 KHz
Bit depth : 16 bits
Compression mode : Lossy
Stream size : 228 MiB (16%)
Alignment : Split accross interleaves
Interleave, duration : 42 ms (1.00 video frame)
Interleave, preload duration : 500 ms

Скриншоты





Последний раз редактировалось: akbardjon (2016-02-13 12:42), всего редактировалось 6 раз(а)

Создавать темы 13-Фев-2016 11:42

[Профиль]  [ЛС] 

ruhal

Стаж: 2 года 5 месяцев

Сообщений: 1181

Симпатии: 1836

Скриншоты оригинального размера 720x432 залейте

Создавать темы 13-Фев-2016 11:48

[Профиль]  [ЛС] 
Показать сообщения:    
Ответить на тему

Текущее время: 20-Сен 12:26

Часовой пояс: UTC + 5



Вы не можете начинать темы
Вы не можете отвечать на сообщения
Вы не можете редактировать свои сообщения
Вы не можете удалять свои сообщения
Вы не можете голосовать в опросах
Вы не можете прикреплять файлы к сообщениям
Вы не можете скачивать файлы