ШПИОН / SPY (Пол Фиг) [2015, США, Комедия, BDRip-AVC] (Dub) (Original Rus)

Ответить на тему
 

make7777 ®

Стаж: 1 год 10 месяцев

Сообщений: 12

Симпатии: 37

ШПИОН / SPY Страна: США
Жанр: Комедия
Год выпуска: 2015
Продолжительность: 01:55:24
Перевод: Профессиональный (дублированный)
Cубтитры: нет
Оригинальная аудиодорожка: русский
Режиссер: Пол Фиг
В ролях: Мелисса МакКарти, Джейсон Стэйтем, Роуз Бирн, Морена Баккарин, Джуд Лоу, Эллисон Дженни, Ниа Лонг, Питер Серафинович, Бобби Каннавале, Фифти Сент.
Описание: Это картина относится к разряду комедии с элементами драмы. И как тут не посмеяться и не всплакнуть, когда видишь героиню фильма Сьюзан Купер. Очень молодая девушка чувствует себя очень одиноко и постоянно грустит еще со времен школьной скамьи. Постоянные смешки одноклассников доводят бедную Сьюзен до бескрайного безумия. Мечтая самореализоваться, девушка выросла и стала одним из лучших секретных агентов, но от этого счастья в её существовании не прибавилось. Природа явно отыгралась на Сьюзен Купер и за неё, и за кого-то ещё, потому что не дала ее внешности ничего такого, что могло бы сделать ее хоть чуточку симпатичной. От природы в подарок, Сьюзен получила толстые и абсолютно кривые ноги, жидкие волосы, а самая ненавистная часть у девушки - это её губы - тонкие и безликие. Но внезапно перед Сьюзен открывается уникальная возможность все изменить. Как-то случайно она познакомилась с очаровательным хирургом, занимающимся пластическими операциями. Девушка искренне влюбляется в него, что называется, по-настоящему. И ей даже в голову не приходит, что она может быть для него лишь средством саморекламы. Но он сможет сделать для нее самое желанное, исполнить заветную мечту - подарить ей новую притягательную внешность.
Доп. информация: РЕКОМЕНДУЮ
Качество: BDRip-AVC
Формат: MP4
Видео кодек: avc1
Аудио кодек: 40
Видео: 1024x428, 24,000 кадра/сек, 1202 Кбит/сек
Аудио: 48,0 КГц, AAC, 128 Кбит/сек

MediaInfo

Общее
Полное имя : E:\kino\Shpion_2015_avc_web-dlrip.mp4
Формат : MPEG-4
Профиль формата : Base Media
Идентификатор кодека : isom (mp41)
Размер файла : 1,08 Гбайт
Продолжительность : 1 ч. 55 м.
Общий поток : 1335 Кбит/сек
Дата кодирования : UTC 2015-09-01 19:49:42
Дата пометки : UTC 2015-09-01 19:49:42
Видео
Идентификатор : 2
Формат : AVC
Формат/Информация : Advanced Video Codec
Профиль формата : [email protected]
Параметр CABAC формата : Нет
Параметр ReFrames формата : 1 кадр
Идентификатор кодека : avc1
Идентификатор кодека/Информация : Advanced Video Coding
Продолжительность : 1 ч. 55 м.
Битрейт : 1202 Кбит/сек
Ширина : 1024 пикселя
Высота : 428 пикселей
Соотношение сторон : 2,40:1
Режим частоты кадров : Постоянный
Частота кадров : 24,000 кадра/сек
Цветовое пространство : YUV
Субдискретизация насыщенности : 4:2:0
Битовая глубина : 8 бит
Тип развёртки : Прогрессивная
Бит/(Пиксели*Кадры) : 0.114
Размер потока : 992 Мбайт (90%)
Библиотека кодирования : >
Язык : English
Аудио
Идентификатор : 1
Формат : AAC
Формат/Информация : Advanced Audio Codec
Профиль формата : LC
Идентификатор кодека : 40
Продолжительность : 1 ч. 55 м.
Вид битрейта : Постоянный
Битрейт : 128 Кбит/сек
Каналы : 2 канала
Расположение каналов : Front: L R
Частота : 48,0 КГц
Частота кадров : 46,875 кадров/сек (1024 spf)
Метод сжатия : С потерями
Размер потока : 106 Мбайт (10%)
Язык : English

Скриншоты





Последний раз редактировалось: make7777 (2016-02-25 22:10), всего редактировалось 2 раз(а)

Создавать темы 13-Фев-2016 20:29

[Профиль]  [ЛС] 

ruhal

Стаж: 2 года 8 месяцев

Сообщений: 1181

Симпатии: 1836

Тех. данные оформите по шаблону:

Шаблон

[b]Качество[/b]: качество видео
[b]Формат[/b]: формат файла
[b]Видео кодек[/b]: использованный видеокодек
[b]Аудио кодек[/b]: использованный аудиокодек
[b]Видео[/b]: разрешение кадра (в пикселях), значение видеобитрейта (kbps) и частота кадров в секунду (fps) (пример720х304 , 23.976 fps, 1773 Kbps )
[b]Аудио[/b]: значение аудиобитрейта (kbps), количество аудиоканалов (ch) для каждой из дорожек. (пример48.0 KHz, AC-3, 384 Kbps (6 ch) )

Создавать темы 14-Фев-2016 09:38

[Профиль]  [ЛС] 

root

Стаж: 5 лет 6 месяцев

Сообщений: 592

Симпатии: 172

make7777,
Качество: BDRip-AVC
Shpion_2015_avc_web-dlrip.mp4 1.07 GB (1155479485)
Чему верить ?

Создавать темы 21-Фев-2016 07:20

[Профиль]  [ЛС] 
Показать сообщения:    
Ответить на тему

Текущее время: 12-Дек 09:47

Часовой пояс: UTC + 5



Вы не можете начинать темы
Вы не можете отвечать на сообщения
Вы не можете редактировать свои сообщения
Вы не можете удалять свои сообщения
Вы не можете голосовать в опросах
Вы не можете прикреплять файлы к сообщениям
Вы не можете скачивать файлы