AC/DC - Live At River Plate, 2009, Rock, BDRip

Ответить на тему
 

Slowwalker ®

Стаж: 4 года 7 месяцев

Сообщений: 165

Симпатии: 68

Live At River Plate-- Страна группы: Австралия
Жанр: Rock
Место проведения концерта: Аргентина (Буэнос Айрос)
Дата концерта: 2009
Год релиза в DVD: 2011
Продолжительность: 01:51:38
Доп. информация: Новое концертное видео AC/DC, получившее название "Live At River Plate", будет доступно для заказов начиная с 10 мая. Снятое в декабре 2009 года, "Live At River Plate" показывает триумфальное возвращение группы в Буэнос Айрос (Аргентина), на котором присутствовало около 200.000 фэнов. Более 3-х полностью распроданных выступлений, после тринадцатилетнего отсутствия группы в Аргентине. Видео было снято на 32 камеры. В роли режиссёра выступил David Mallet, продюсером фильма стал Rocky Oldham. Диск включает в себя 19 песен (110 мин.), а так же, закулисные съёмки.
Состав: Brian Johnson - vocals; Angus Young - lead guitars; Malcolm Young - rhythm guitars; Cliff Williams - bass guitars; Phil Rudd - drums and percussion
Качество видео: BDRip
Формат видео: AVI
Видео: Xvid, 2177 Kbps, 720х400, 16:9, 24 fps
Аудио: AC3 5.1, 448 Kbps
--

MediaInfo

Общее
Полное имя : D:\AC.DC.Live.At.River.Plate.2011.BDRip.XviD.AC3.-HQCLUB.avi
Формат : AVI
Формат/Информация : Audio Video Interleave
Профиль формата : OpenDML
Размер файла : 2,06 Гбайт
Продолжительность : 1 ч. 51 м.
Общий поток : 2637 Кбит/сек
Название фильма : AC/DC Live At River Plate (2011) BDRip
Режиссёр : Orbit
Программа кодирования : VirtualDubMod 1.5.10.2 (build 2542/release)
Авторское право : hqclub.net
Видео
Идентификатор : 0
Формат : MPEG-4 Visual
Профиль формата : Advanced [email protected]
Параметр BVOP формата : 1
Параметр QPel формата : Нет
Параметр GMC формата : Без точки перехода
Параметр матрицы формата : Выборочная
Идентификатор кодека : XVID
Идентификатор кодека/Подсказка : XviD
Продолжительность : 1 ч. 51 м.
Битрейт : 2177 Кбит/сек
Ширина : 720 пикселей
Высота : 400 пикселей
Соотношение сторон : 16:9
Частота кадров : 23,976 кадра/сек
Цветовое пространство : YUV
Субдискретизация насыщенности : 4:2:0
Битовая глубина : 8 бит
Тип развёртки : Прогрессивная
Метод сжатия : С потерями
Бит/(Пиксели*Кадры) : 0.315
Размер потока : 1,70 Гбайт (83%)
Библиотека кодирования : XviD 63
Аудио
Идентификатор : 1
Формат : AC-3
Формат/Информация : Audio Coding 3
Расширение режима : CM (complete main)
Параметр Endianness формата : Big
Идентификатор кодека : 2000
Продолжительность : 1 ч. 51 м.
Вид битрейта : Постоянный
Битрейт : 448 Кбит/сек
Каналы : 6 каналов
Расположение каналов : Front: L C R, Side: L R, LFE
Частота : 48,0 КГц
Метод сжатия : С потерями
Размер потока : 357 Мбайт (17%)
Выравнивание : Разделение по промежуткам
Продолжительность промежутка : 42 мс. (1,00 видеокадр)
Время предзагрузки промежутка : 500 мс.

Треклист

01. Rock N Roll Train
02. Hell Aint A Bad Place To Be
03. Back In Black
04. Big Jack
05. Dirty Deeds Done Dirt Cheap
06. Shot Down In Flames
07. Thunderstruck
08. Black Ice
09. The Jack
10. Hells Bells
11. Shoot To Thrill
12. War Machine
13. Dog Eat Dog
14. You Shook Me All Night Long
15. T.N.T.
16. Whole Lotta Rosie
17. Let There Be Rock
18. Highway To Hell
19. For Those About To Rock (We Salute You)

Ролик для ознакомления (Mover.uz)

http://mover.uz/watch/5RjPbDym/
--

Создавать темы 13-Фев-2016 23:15

[Профиль]  [ЛС] 
Показать сообщения:    
Ответить на тему

Текущее время: 24-Авг 10:05

Часовой пояс: UTC + 5



Вы не можете начинать темы
Вы не можете отвечать на сообщения
Вы не можете редактировать свои сообщения
Вы не можете удалять свои сообщения
Вы не можете голосовать в опросах
Вы не можете прикреплять файлы к сообщениям
Вы не можете скачивать файлы