Нина навсегда / Nina Forever (Бен Блейн, Крис Блейн) [2015, Великобритания, ужасы, мелодрама, комедия, WEB-DLRip] L2 (den904 & DeadSno)

Ответить на тему
 

kat222000 ®

Стаж: 6 лет 8 месяцев

Сообщений: 608

Симпатии: 1055

Нина навсегда / Nina Forever«A fucked up fairy tale» -Страна: Великобритания
Жанр: ужасы, мелодрама, комедия
Год выпуска: 2015
Продолжительность: 01:38:45
Перевод: Любительский (двухголосый закадровый) (den904 & DeadSno)
Субтитры: нет
Навигация по главам: нет-Режиссер: Бен Блейн, Крис Блейн-В ролях: Фиона, О’Шонесси, Эбигейл Хардингэм, Киэн Бэрри, Дэвид Тротон, Элизабет Элвин, Билл Холлэнд, Ли Николас Харрис, Шон Верей, Фелим Келли, Ричард Сэндлинг-Описание: После того, как его подруга Нина погибает в автокатастрофе, Роб совершает неудачную попытку самоубийства. Чтобы преодолеть свое горе, он влюбляется в коллегу, Холли. Их отношения усложняются, когда Нина, не в силах найти покой в загробной жизни, возвращается к жизни, чтобы с сарказмом мучить их, когда они занимаются сексом.- -Возраст: зрителям, достигшим 18 лет-Рейтинг MPAA: лицам до 17 лет обязательно присутствие взрослого-Качество видео: WEB-DLRip
Формат видео: AVI
Видео кодек: XviD
Аудио кодек: AC3
Видео: 720x304 (2.35:1), 24.000 fps, XviD ~1 622 kbps avg, 0.309 bit/pixel
Аудио 1: 48 kHz, AC3 Dolby Digital, 2/0 (L,R), ~192.00 kbps avg (Русский | L2)
Аудио 2: 48 kHz, AC3 Dolby Digital, 2/0 (L,R), ~192.00 kbps avg (English | Original)- -

〤 ОтчетМедиаИнфо 〤

General
Format : AVI
Format/Info : Audio Video Interleave
File size : 1.45 GiB
Duration : 1h 38mn
Overall bit rate : 2 100 Kbps
Writing application : VirtualDubMod 1.5.10.3 | www.virtualdub-fr.org || (build 2550/release)
Writing library : VirtualDubMod build 2550/release
Video
ID : 0
Format : MPEG-4 Visual
Format profile : Advanced [email protected]
Format settings, BVOP : 1
Format settings, QPel : No
Format settings, GMC : No warppoints
Format settings, Matrix : Custom
Codec ID : XVID
Codec ID/Hint : XviD
Duration : 1h 38mn
Bit rate : 1 622 Kbps
Width : 720 pixels
Height : 304 pixels
Display aspect ratio : 2.35:1
Frame rate : 24.000 fps
Color space : YUV
Chroma subsampling : 4:2:0
Bit depth : 8 bits
Scan type : Progressive
Compression mode : Lossy
Bits/(Pixel*Frame) : 0.309
Stream size : 1.12 GiB (77%)
Writing library : XviD 73
Audio #1
ID : 1
Format : AC-3
Format/Info : Audio Coding 3
Mode extension : CM (complete main)
Format settings, Endianness : Big
Codec ID : 2000
Duration : 1h 38mn
Bit rate mode : Constant
Bit rate : 192 Kbps
Channel(s) : 2 channels
Channel positions : Front: L R
Sampling rate : 48.0 KHz
Compression mode : Lossy
Stream size : 136 MiB (9%)
Alignment : Split accross interleaves
Audio #2
ID : 2
Format : AC-3
Format/Info : Audio Coding 3
Mode extension : CM (complete main)
Format settings, Endianness : Big
Codec ID : 2000
Duration : 1h 38mn
Bit rate mode : Constant
Bit rate : 192 Kbps
Channel(s) : 2 channels
Channel positions : Front: L R
Sampling rate : 48.0 KHz
Compression mode : Lossy
Stream size : 136 MiB (9%)
Alignment : Split accross interleaves
-

〤 Скриншоты 〤



- © Оформление by kat222000

Создавать темы 14-Фев-2016 23:18

[Профиль]  [ЛС] 
Показать сообщения:    
Ответить на тему

Текущее время: 14-Дек 12:58

Часовой пояс: UTC + 5



Вы не можете начинать темы
Вы не можете отвечать на сообщения
Вы не можете редактировать свои сообщения
Вы не можете удалять свои сообщения
Вы не можете голосовать в опросах
Вы не можете прикреплять файлы к сообщениям
Вы не можете скачивать файлы