Джонни взял ружье / Johnny Got His Gun (Далтон Трамбо) [1971, США, драма, военный, BDRip-AVC] MVO+ Original (Eng) + Sub (Rus, Eng)

Ответить на тему
 

lotto ®

Стаж: 7 лет 10 месяцев

Сообщений: 221

Симпатии: 409

Джонни взял ружье / Johnny Got His Gun
«The most shattering experience you'll ever live»
-- Страна: США
Жанр: драма, военный
Год выпуска: 1971
Продолжительность: 01:51:40
Перевод: Профессиональный (многоголосый закадровый)
Cубтитры: русские
Оригинальная аудиодорожка: английский--Режиссер: Далтон Трамбо
В ролях: Тимоти Боттомс, Кэти Филдс, Марша Хант, Джейсон Робардс, Дональд Сазерленд, Чарльз МакГроу, Сэнди Браун Уайет, Дон ’Красный’ Бэрри, Питер Брокко, Кенделл Кларк--Описание: Джо, молодой американский солдат, получил ранение снарядом миномета в последний день Первой мировой войны. Он лежит в госпитале среди таких же инвалидов. Сохранив способность мыслить, он заново переживает свою жизнь через странные мечты и воспоминания, не видя различий между сном и явью.
Доп. информация: В основу фильма положен роман, написанный Далтоном Трамбо в 1939 году, который был запрещен в США в годы Второй Мировой Войны ввиду его радикальных антивоенных настроений.-- --Качество видео: BDRip-AVC
Формат видео: MKV
Видео: H264, 1068x644, 3856 kbps, 24fps
Аудио: AC3, 48000Hz, 2 ch, 128kbps (русский, многоголосый)
Аудио 2: AC3, 48000Hz, 2 ch, 192kbps (оригинал)
Формат субтитров: softsub (SRT)

MediaInfo

General
Unique ID : 201888364678971245507603458334685697572 (0x97E248E1D3F078A68D59F04628DC9624)
Complete name : Johnny Got His Gun.1971.BDRip-AVC.eFK tRuAVC.mkv
Format : Matroska
Format version : Version 4 / Version 2
File size : 3.26 GiB
Duration : 1h 51mn
Overall bit rate : 4 179 Kbps
Movie name : Джонни взял ружье / Johnny Got His Gun (1971) - Release for rutracker
Encoded date : UTC 2015-04-12 05:36:23
Writing application : mkvmerge v7.6.0 ('Garden of Dreams') 64bit built on Feb 8 2015 13:04:34
Writing library : libebml v1.3.1 + libmatroska v1.4.2
Cover : Yes
Attachments : cover.png
Video
ID : 1
Format : AVC
Format/Info : Advanced Video Codec
Format profile : [email protected]
Format settings, CABAC : Yes
Format settings, ReFrames : 10 frames
Codec ID : V_MPEG4/ISO/AVC
Duration : 1h 51mn
Bit rate : 3 856 Kbps
Width : 1 068 pixels
Height : 644 pixels
Display aspect ratio : 5:3
Frame rate mode : Constant
Frame rate : 24.000 fps
Color space : YUV
Chroma subsampling : 4:2:0
Bit depth : 8 bits
Scan type : Progressive
Bits/(Pixel*Frame) : 0.234
Stream size : 3.01 GiB (92%)
Title : eFK tRuAVC
Writing library : x264 core 146 r2538kMod 121396c
Encoding settings : cabac=1 / ref=10 / deblock=1:-2:-2 / analyse=0x3:0x133 / me=umh / subme=11 / psy=1 / fade_compensate=0.00 / psy_rd=1.10:0.00 / mixed_ref=1 / me_range=32 / chroma_me=1 / trellis=2 / 8x8dct=1 / cqm=0 / deadzone=21,11 / fast_pskip=0 / chroma_qp_offset=-2 / threads=12 / lookahead_threads=3 / sliced_threads=0 / nr=0 / decimate=1 / interlaced=0 / bluray_compat=0 / constrained_intra=0 / fgo=0 / bframes=16 / b_pyramid=2 / b_adapt=2 / b_bias=0 / direct=3 / weightb=1 / open_gop=0 / weightp=2 / keyint=250 / keyint_min=24 / scenecut=40 / intra_refresh=0 / rc_lookahead=60 / rc=crf / mbtree=0 / crf=18.5000 / qcomp=0.60 / qpmin=0 / qpmax=69 / qpstep=4 / vbv_maxrate=50000 / vbv_bufsize=62500 / crf_max=0.0 / nal_hrd=none / filler=0 / ip_ratio=1.40 / pb_ratio=1.30 / aq=3:0.80
Language : English
Default : Yes
Forced : No
Color range : Limited
Color primaries : BT.709
Transfer characteristics : BT.709
Matrix coefficients : BT.709
Audio #1
ID : 2
Format : AC-3
Format/Info : Audio Coding 3
Mode extension : CM (complete main)
Format settings, Endianness : Big
Codec ID : A_AC3
Duration : 1h 51mn
Bit rate mode : Constant
Bit rate : 128 Kbps
Channel(s) : 2 channels
Channel positions : Front: L R
Sampling rate : 48.0 KHz
Frame rate : 31.250 fps (1536 spf)
Compression mode : Lossy
Stream size : 102 MiB (3%)
Title : MVO (Петербург 5-й канал)
Language : Russian
Default : Yes
Forced : No
Audio #2
ID : 3
Format : AC-3
Format/Info : Audio Coding 3
Mode extension : CM (complete main)
Format settings, Endianness : Big
Codec ID : A_AC3
Duration : 1h 51mn
Bit rate mode : Constant
Bit rate : 192 Kbps
Channel(s) : 2 channels
Channel positions : Front: L R
Sampling rate : 48.0 KHz
Frame rate : 31.250 fps (1536 spf)
Compression mode : Lossy
Stream size : 153 MiB (5%)
Language : English
Default : No
Forced : No
Text #1
ID : 4
Format : UTF-8
Codec ID : S_TEXT/UTF8
Codec ID/Info : UTF-8 Plain Text
Duration : 1h 48mn
Bit rate : 68 bps
Count of elements : 1168
Stream size : 53.9 KiB (0%)
Title : полные
Language : Russian
Default : No
Forced : No
Text #2
ID : 5
Format : UTF-8
Codec ID : S_TEXT/UTF8
Codec ID/Info : UTF-8 Plain Text
Duration : 1h 46mn
Bit rate : 59 bps
Count of elements : 1674
Stream size : 46.7 KiB (0%)
Title : full
Language : English
Default : No
Forced : No
Menu
00:00:00.000 : :Chapter 01
00:09:43.833 : :Chapter 02
00:21:18.667 : :Chapter 03
00:30:06.542 : :Chapter 04
00:40:24.708 : :Chapter 05
00:51:23.375 : :Chapter 06
00:57:46.167 : :Chapter 07
01:08:20.500 : :Chapter 08
01:15:34.625 : :Chapter 09
01:26:57.042 : :Chapter 10
01:36:03.042 : :Chapter 11
01:44:04.875 : :Chapter 12

Скриншот c названием фильма

Скриншоты






Создавать темы 15-Фев-2016 12:12

[Профиль]  [ЛС] 

akbardjon

Стаж: 1 год 10 месяцев

Сообщений: 4

Симпатии: 1

не ожидал увидеть сей фильм здесь)смотрел когда-то без перевода,да и то из-за песни группы Metallica!!!

Комментарий от ruhal


Ага, точно. Клип на песню One

Создавать темы 17-Фев-2016 12:11

[Профиль]  [ЛС] 

evil-tashkenta

Стаж: 5 лет 10 месяцев

Сообщений: 17

Отличный фильм! Спасибо

Создавать темы 19-Фев-2016 13:17

[Профиль]  [ЛС] 

zolotoi

Стаж: 5 лет 8 месяцев

Сообщений: 3

Права на этот фильм принадлежат гр. Metallica)))

Создавать темы 23-Фев-2016 14:39

[Профиль]  [ЛС] 
Показать сообщения:    
Ответить на тему

Текущее время: 17-Ноя 22:44

Часовой пояс: UTC + 5



Вы не можете начинать темы
Вы не можете отвечать на сообщения
Вы не можете редактировать свои сообщения
Вы не можете удалять свои сообщения
Вы не можете голосовать в опросах
Вы не можете прикреплять файлы к сообщениям
Вы не можете скачивать файлы