Макбет / Macbeth (Джастин Курзель / Justin Kurzel) [2015 г., драма, военный, BDRip-AVC]

Ответить на тему
 

Next_1 ®

Стаж: 4 года

Сообщений: 32

Симпатии: 53

МакбетMacbeth«Кровь порождает кровь»- Год выпуска: 2015
Страна: Великобритания, Франция, США
Жанр: драма, военный
Продолжительность: 01:52:51
Перевод: Дублированный
Субтитры: английские (Full),
английские (SDH),-Режиссер: Джастин Курзель / Justin Kurzel
В ролях: Майкл Фассбендер, Марион Котийяр, Пэдди Консидайн, Шон Харрис, Джек Рейнор, Элизабет Дебики, Дэвид Тьюлис, Росс Андерсон, Дэвид Хейман, Морис Роевз, Хилтон МакРэй, Сейлан Бакстер-Описание: Холодные поля Шотландии, военный лагерь, всегда готовый переместиться в другое место. Макбет всегда на войне, его жена, недавно потерявшая ребенка, боится потерять еще и мужа. Чтобы удержать его рядом, она начинает свой проект по устранению конкурентов в борьбе за королевскую корону.-IMDb: 7.00 (21 038)
КиноПоиск: 7.426 (11 188)-Качество: BDRip
Формат: MKV
Видео: AVC, 984x412, ~1404 kbps, 24 fps
Аудио: AC3, 48 kHz, 384 kbps, 6 ch-

MediaInfo

General
Unique ID : 209019494403126358820799963130826628267 (0x9D3FB0B904DE338188A8B9101C649CAB)
Complete name : E:\Торрент\Фильмы и видео\HD\Драма\Makbet.2015.RUS.BDRip.mkv
Format : Matroska
Format version : Version 4 / Version 2
File size : 1.41 GiB
Duration : 1h 52mn
Overall bit rate : 1 784 Kbps
Movie name : Macbeth (2015) - HELLYWOOD
Encoded date : UTC 2016-02-14 21:46:06
Writing application : mkvmerge v5.9.0 ('On The Loose') built on Dec 15 2012 16:39:58
Writing library : libebml v1.3.0 + libmatroska v1.4.0
Video
ID : 1
Format : AVC
Format/Info : Advanced Video Codec
Format profile : [email protected]
Format settings, CABAC : Yes
Format settings, ReFrames : 12 frames
Codec ID : V_MPEG4/ISO/AVC
Duration : 1h 52mn
Bit rate : 1 404 Kbps
Width : 984 pixels
Height : 412 pixels
Display aspect ratio : 2.40:1
Frame rate mode : Constant
Frame rate : 24.000 fps
Color space : YUV
Chroma subsampling : 4:2:0
Bit depth : 8 bits
Scan type : Progressive
Bits/(Pixel*Frame) : 0.144
Stream size : 1.08 GiB (76%)
Title : potroks
Writing library : x264 core 146 r2538 121396c
Encoding settings : cabac=1 / ref=12 / deblock=1:-2:-2 / analyse=0x3:0x113 / me=umh / subme=11 / psy=1 / psy_rd=1.00:0.06 / mixed_ref=1 / me_range=48 / chroma_me=1 / trellis=2 / 8x8dct=1 / cqm=0 / deadzone=21,11 / fast_pskip=0 / chroma_qp_offset=-3 / threads=9 / lookahead_threads=2 / sliced_threads=0 / nr=0 / decimate=0 / interlaced=0 / bluray_compat=0 / constrained_intra=0 / bframes=13 / b_pyramid=2 / b_adapt=2 / b_bias=0 / direct=3 / weightb=1 / open_gop=0 / weightp=2 / keyint=240 / keyint_min=23 / scenecut=40 / intra_refresh=0 / rc_lookahead=60 / rc=2pass / mbtree=0 / bitrate=1404 / ratetol=1.0 / qcomp=0.70 / qpmin=0 / qpmax=69 / qpstep=4 / cplxblur=20.0 / qblur=0.5 / vbv_maxrate=14000 / vbv_bufsize=14000 / nal_hrd=none / filler=0 / ip_ratio=1.40 / pb_ratio=1.30 / aq=1:0.80
Language : English
Default : Yes
Forced : No
Audio
ID : 2
Format : AC-3
Format/Info : Audio Coding 3
Mode extension : CM (complete main)
Format settings, Endianness : Big
Codec ID : A_AC3
Duration : 1h 52mn
Bit rate mode : Constant
Bit rate : 384 Kbps
Channel(s) : 6 channels
Channel positions : Front: L C R, Side: L R, LFE
Sampling rate : 48.0 KHz
Frame rate : 31.250 fps (1536 spf)
Compression mode : Lossy
Stream size : 310 MiB (22%)
Title : Dub | DD 5.1 @ 384 kbps - iTunes
Language : Russian
Default : Yes
Forced : No
Text #1
ID : 3
Format : UTF-8
Codec ID : S_TEXT/UTF8
Codec ID/Info : UTF-8 Plain Text
Title : Full
Language : English
Default : No
Forced : No
Text #2
ID : 4
Format : UTF-8
Codec ID : S_TEXT/UTF8
Codec ID/Info : UTF-8 Plain Text
Title : SDH
Language : English
Default : No
Forced : No
Menu
00:00:00.000 : en:(01)00:00:00:000
00:09:44.500 : en:(02)00:09:44:500
00:18:19.416 : en:(03)00:18:19:416
00:33:11.041 : en:(04)00:33:11:041
00:42:30.625 : en:(05)00:42:30:625
00:51:18.041 : en:(06)00:51:18:041
01:00:19.250 : en:(07)01:00:19:250
01:11:23.125 : en:(08)01:11:23:125
01:16:26.083 : en:(09)01:16:26:083
01:26:24.583 : en:(10)01:26:24:583
01:33:59.916 : en:(11)01:33:59:916
01:46:27.000 : en:(12)01:46:27:000
-

Скриншоты



Создавать темы 16-Фев-2016 14:26

[Профиль]  [ЛС] 

Next_1 ®

Стаж: 4 года

Сообщений: 32

Симпатии: 53

Раздача будет 48 часов на высокой скорости, потом 100кб/с

Создавать темы 16-Фев-2016 14:32

[Профиль]  [ЛС] 

Топик был перенесен из форума Фильмы за 2015 в форум HD-AVC
ruhal

Создавать темы 16-Фев-2016 15:41

 
Показать сообщения:    
Ответить на тему

Текущее время: 24-Окт 01:58

Часовой пояс: UTC + 5



Вы не можете начинать темы
Вы не можете отвечать на сообщения
Вы не можете редактировать свои сообщения
Вы не можете удалять свои сообщения
Вы не можете голосовать в опросах
Вы не можете прикреплять файлы к сообщениям
Вы не можете скачивать файлы