Снупи и мелочь пузатая в кино / The Peanuts Movie (Стив Мартино / Steve Martino) [2015 г., мультфильм, комедия, приключения, WEB-DLRip]

Ответить на тему
 

Next_1 ®

Стаж: 4 года 1 месяц

Сообщений: 32

Симпатии: 53

Снупи и мелочь пузатая в киноThe Peanuts Movie«Мечтать так мечтать»- Год выпуска: 2015
Страна: США
Жанр: мультфильм, комедия, приключения, семейный
Продолжительность: 01:28:38
Перевод: Дублированный-Режиссер: Стив Мартино / Steve Martino
В ролях: Тромбоун Шорти, Ребекка Блум, Анастасия Бредихина, Франческа Капальди, Кристин Ченоуэт, Александр Гарфин, Ной Джонстон, Билл Мелендес, Хэдли Белль Миллер, Мика Ревелли, Ной Шнапп, Венус Шултейс-Описание: Чарли Браун, Снупи, Люси, Линус и другие полюбившиеся персонажи комиксов «Мелочь пузатая» впервые появятся на большом экране в полнометражном анимационном фильме, снятом с использованием последних достижений 3D-анимации. Снупи - самый симпатичный пес в мире - к тому же, классный пилот - отправляется в невероятные воздушные приключения в погоне за главным злодеем Красным Бароном. В это время у его приятеля Чарли Брауна начинаются поистине эпические приключения!-IMDb: 7.30 (16 530)
КиноПоиск: 6.585 (987)-Качество: WEB-DLRip
Формат: AVI
Видео: XviD, 720x384, ~1814 kbps, 23,976 fps
Аудио: AC3, 48 kHz, 384 kbps, 6 ch-

MediaInfo

General
Complete name : E:\Торрент\Фильмы и видео\Удалить при необходимости\MeL04.pu3ataya.2015.D.WEB-DLRip.1400Mb.avi
Format : AVI
Format/Info : Audio Video Interleave
File size : 1.37 GiB
Duration : 1h 28mn
Overall bit rate : 2 206 Kbps
Movie name : MeL04.pu3ataya.2015.D.WEB-DLRip.1400Mb
Writing application : VirtualDubMod 1.5.10.2 (build 2540/release)
Original source form/Name : Movie
Video
ID : 0
Format : MPEG-4 Visual
Format profile : Advanced [email protected]
Format settings, BVOP : 2
Format settings, QPel : No
Format settings, GMC : No warppoints
Format settings, Matrix : Default (MPEG)
Codec ID : XVID
Codec ID/Hint : XviD
Duration : 1h 28mn
Bit rate : 1 815 Kbps
Width : 720 pixels
Height : 384 pixels
Display aspect ratio : 1.85:1
Frame rate : 23.976 (24000/1001) fps
Color space : YUV
Chroma subsampling : 4:2:0
Bit depth : 8 bits
Scan type : Progressive
Compression mode : Lossy
Bits/(Pixel*Frame) : 0.274
Stream size : 1.12 GiB (82%)
Writing library : XviD 1.2.1 (UTC 2008-12-04)
Audio
ID : 1
Format : AC-3
Format/Info : Audio Coding 3
Mode extension : CM (complete main)
Format settings, Endianness : Big
Codec ID : 2000
Duration : 1h 28mn
Bit rate mode : Constant
Bit rate : 384 Kbps
Channel(s) : 6 channels
Channel positions : Front: L C R, Side: L R, LFE
Sampling rate : 48.0 KHz
Frame rate : 31.250 fps (1536 spf)
Compression mode : Lossy
Stream size : 242 MiB (17%)
Alignment : Split accross interleaves
Interleave, duration : 42 ms (1.01 video frame)
Interleave, preload duration : 500 ms
-

Скриншоты



Создавать темы 16-Фев-2016 18:02

[Профиль]  [ЛС] 

ALiXaN

Стаж: 5 лет 9 месяцев

Сообщений: 7

Симпатии: 1

dayte skorost prashu

Создавать темы 03-Апр-2016 19:57

[Профиль]  [ЛС] 
Показать сообщения:    
Ответить на тему

Текущее время: 18-Ноя 13:23

Часовой пояс: UTC + 5



Вы не можете начинать темы
Вы не можете отвечать на сообщения
Вы не можете редактировать свои сообщения
Вы не можете удалять свои сообщения
Вы не можете голосовать в опросах
Вы не можете прикреплять файлы к сообщениям
Вы не можете скачивать файлы