Бодибилдер / Bodybuilder (Рошди Зем) [2014, Франция, Драма,спорт, HDRip] [Официальный звук]

Ответить на тему
 

Шаман ®

Стаж: 1 год 11 месяцев

Сообщений: 10

Симпатии: 35

Бодибилдер / Bodybuilder
-
Страна: Франция
Жанр: Драма, спорт
Год выпуска: 2014
Продолжительность: 01:44:02
Перевод: Профессиональный (многоголосый закадровый) [Официальный звук]
Cубтитры: нет
Режиссер: Рошди Зем
В ролях: Венсан Ротье, Марина Фоис, Николя Дювошель, Рошди Зем, Адель Беншериф, Доминик Реймон Марель (Венсан Ротье) задолжал крупную сумму из-за неудавшихся самонадеянных попыток «замутить» доходный бизнес в Лионе. Разъяренные криминальные уличные кредиторы преследуют его и, по настоянию брата, он бежит от неприятностей в провинцию к своему отцу, которого после развода родителей не видел несколько лет. Отец — владелец небольшого тренажерного зала готовится к чемпионату по бодибилдингу в категории ветеранов. Немногословный и хмурый дядька соглашается приютить сына, хотя видит, что от парня добра не жди.
Доп. информация:

Качество видео: HDRip
Формат видео: AVI
Видео: XVID 720x304 24.00fps 1805Kbps
Аудио: Dolby AC3 48000Hz stereo 192Kbps

MediaInfo

General
Complete name : Bodybilder.2014.P.HDRip.avi
Format : AVI
Format/Info : Audio Video Interleave
File size : 1.46 GiB
Duration : 1h 44mn
Overall bit rate : 2 007 Kbps
Writing application : VirtualDubMod 1.5.10.2 (build 2540/release)
Writing library : VirtualDubMod build 2540/release
Video #0
ID : 0
Format : MPEG-4 Visual
Format profile : Advanced [email protected]
Format settings, BVOP : 2
Format settings, QPel : No
Format settings, GMC : No warppoints
Format settings, Matrix : Default (MPEG)
Codec ID : XVID
Codec ID/Hint : XviD
Duration : 1h 44mn
Bit rate : 1 805 Kbps
Width : 720 pixels
Height : 304 pixels
Display aspect ratio : 2.35:1
Frame rate : 24.000 fps
Color space : YUV
Chroma subsampling : 4:2:0
Bit depth : 8 bits
Scan type : Progressive
Compression mode : Lossy
Bits/(Pixel*Frame) : 0.344
Stream size : 1.31 GiB (90%)
Writing library : XviD 1.2.1 (UTC 2008-12-04)
Audio #1
ID : 1
Format : AC-3
Format/Info : Audio Coding 3
Mode extension : CM (complete main)
Format settings, Endianness : Big
Codec ID : 2000
Duration : 1h 44mn
Bit rate mode : Constant
Bit rate : 192 Kbps
Channel(s) : 2 channels
Channel positions : Front: L R
Sampling rate : 48.0 KHz
Bit depth : 16 bits
Compression mode : Lossy
Stream size : 143 MiB (10%)
Alignment : Split accross interleaves
Interleave, duration : 42 ms (1.00 video frame)
Interleave, preload duration : 500 ms


Последний раз редактировалось: Шаман (2016-02-17 11:22), всего редактировалось 1 раз

Создавать темы 17-Фев-2016 11:06

[Профиль]  [ЛС] 

ruhal

Стаж: 2 года 5 месяцев

Сообщений: 1181

Симпатии: 1836

Это не лицензия...Оформляйте грамотней! Я поправил ваш релиз, в следующий раз будьте внимательней

Создавать темы 17-Фев-2016 11:24

[Профиль]  [ЛС] 

b3ha

Стаж: 4 года 4 месяца

Сообщений: 19

Симпатии: 3

плз раздачу

Создавать темы 11-Апр-2016 21:13

[Профиль]  [ЛС] 
Показать сообщения:    
Ответить на тему

Текущее время: 27-Сен 01:56

Часовой пояс: UTC + 5



Вы не можете начинать темы
Вы не можете отвечать на сообщения
Вы не можете редактировать свои сообщения
Вы не можете удалять свои сообщения
Вы не можете голосовать в опросах
Вы не можете прикреплять файлы к сообщениям
Вы не можете скачивать файлы