Горец / Highlander (Расселл Малкэй/Russell Mulcahy) [1986, США, Великобритания, фэнтези, боевик, драма, приключения, BDRip 720p] MVO (Rus + Original Eng) (Sub Rus Eng)

Ответить на тему
 

dmitrijj1962 ®

Стаж: 3 года 9 месяцев

Сообщений: 23

Симпатии: 6

-Горец / Highlander- Страна: США, Великобритания
Жанр: фэнтези, боевик, драма, приключения
Год выпуска: 1986
Продолжительность: 01:56:39-Перевод: профессиональный многоголосый, авторский-Режиссер: Расселл Малкэй/Russell Mulcahy-В ролях: Шон Коннери, Кланси Браун, Кристофер Ламберт, Селия Аймри, Шейла Гиш, Питер Дайамонд, Джеймс Космо,
Хью Куарши, Кристофер Малкольм, Алан Норт, Джон Полито, Роксана Харт, Билли Хартмэн, Бити Эдни, Эдвард Уайли, Джон Кэсседи,
Йен Реддингтон, Сион Тудор Оуэн, Дэмиен Лик, Гордон Стерн, Рон Берглас, Луис Гусс, Питер Бэнкс, Джеймс МакКенна, Тед Мэйнард,
Энтони Маннино, Хелена Стивенс, Фрэнк Дюкс, Энтони Фуско, Йен Тайлер-Описание: Шотландец Коннор Маклауд в 1536 году был сражен в битве, но мистическим образом воскрес, и родной клан изгнал его.
Учителем Маклауда стал испанский дворянин, открывший ему, что он принадлежит к бессмертной расе воинов, которых можно лишить жизни, лишь обезглавив мечом.
Сражение между Маклаудом и его вечным врагом Курганом, начавшееся в Шотландии XVI века, продолжается в современном Манхеттене.
От исхода этой битвы зависит судьба всех смертных. Это часть дуэли, продолжающейся веками...-Качество видео: BDRip 720p
Формат видео: MKV
Видео: 5693 Кбит/сек, 1280*690 (1.85:1) в 24.000 кадра/сек, AVC ([email protected])(CABAC/9 Ref Frames)
Аудио:
Аудио 1: русский, AC3, 448 kbps, 6 ch, 48 kHz [профессиональный многоголосый, Супербит]
Аудио 2: русский, AC3, 448 kbps, 6 ch, 48 kHz [профессиональный многоголосый, Video-BIZ]
Аудио 3: русский, AC3, 640 kbps, 6 ch, 48 kHz [авторский, Андрей Гаврилов]
Аудио 4: русский, AC3, 640 kbps, 6 ch, 48 kHz [авторский, Василий Горчаков]
Аудио 5: русский, AC3, 448 kbps, 6 ch, 48 kHz [авторский, Юрий Живов]
Аудио 6: русский, AC3, 448 kbps, 6 ch, 48 kHz [авторский, Михаил Яроцкий (Киберпанк)]
Аудио 7: английский, AC3, 448 kbps, 6 ch, 48 kHz [оригинал]
Субтитры 1: русские (форсированные)
Субтитры 2: русские
Субтитры 3: английские-

MediaInfo

Общее
Уникальный идентификатор : 195791509989367414856924393377175692820 (0x934C12BCE0772CDCBCDCBD641367E614)
Полное имя : F:\Torrent\Горец.mkv
Формат : Matroska
Версия формата : Version 4 / Version 2
Размер файла : 7,51 Гбайт
Продолжительность : 1 ч. 56 м.
Общий поток : 9216 Кбит/сек
Название фильма : BDRip -- STarankov
Дата кодирования : UTC 2015-07-13 16:45:59
Программа кодирования : mkvmerge v7.9.0 ('Birds') 64bit
Библиотека кодирования : libebml v1.3.1 + libmatroska v1.4.2
Видео
Идентификатор : 1
Формат : AVC
Формат/Информация : Advanced Video Codec
Профиль формата : [email protected]
Параметр CABAC формата : Да
Параметр ReFrames формата : 9 кадров
Идентификатор кодека : V_MPEG4/ISO/AVC
Продолжительность : 1 ч. 56 м.
Битрейт : 5693 Кбит/сек
Ширина : 1280 пикселей
Высота : 690 пикселей
Соотношение сторон : 1,85:1
Режим частоты кадров : Постоянный
Частота кадров : 24,000 кадра/сек
Цветовое пространство : YUV
Субдискретизация насыщенности : 4:2:0
Битовая глубина : 8 бит
Тип развёртки : Прогрессивная
Бит/(Пиксели*Кадры) : 0.269
Размер потока : 4,64 Гбайт (62%)
Библиотека кодирования : x264 core 146 r2538 121396c
Язык : English
Default : Да
Forced : Нет
Аудио #1
Идентификатор : 2
Формат : AC-3
Формат/Информация : Audio Coding 3
Расширение режима : CM (complete main)
Параметр Endianness формата : Big
Идентификатор кодека : A_AC3
Продолжительность : 1 ч. 56 м.
Вид битрейта : Постоянный
Битрейт : 448 Кбит/сек
Каналы : 6 каналов
Расположение каналов : Front: L C R, Side: L R, LFE
Частота : 48,0 КГц
Частота кадров : 31,250 кадров/сек (1536 spf)
Метод сжатия : С потерями
Размер потока : 374 Мбайт (5%)
Заголовок : MVO (Супербит)
Язык : Russian
Default : Да
Forced : Нет
Аудио #2
Идентификатор : 3
Формат : AC-3
Формат/Информация : Audio Coding 3
Расширение режима : CM (complete main)
Параметр Endianness формата : Big
Идентификатор кодека : A_AC3
Продолжительность : 1 ч. 56 м.
Вид битрейта : Постоянный
Битрейт : 448 Кбит/сек
Каналы : 6 каналов
Расположение каналов : Front: L C R, Side: L R, LFE
Частота : 48,0 КГц
Частота кадров : 31,250 кадров/сек (1536 spf)
Метод сжатия : С потерями
Размер потока : 374 Мбайт (5%)
Заголовок : MVO (Video-BIZ)
Язык : Russian
Default : Нет
Forced : Нет
Аудио #3
Идентификатор : 4
Формат : AC-3
Формат/Информация : Audio Coding 3
Расширение режима : CM (complete main)
Параметр Endianness формата : Big
Идентификатор кодека : A_AC3
Продолжительность : 1 ч. 56 м.
Вид битрейта : Постоянный
Битрейт : 640 Кбит/сек
Каналы : 6 каналов
Расположение каналов : Front: L C R, Side: L R, LFE
Частота : 48,0 КГц
Частота кадров : 31,250 кадров/сек (1536 spf)
Метод сжатия : С потерями
Размер потока : 534 Мбайт (7%)
Заголовок : AVO (Андрей Гаврилов)
Язык : Russian
Default : Нет
Forced : Нет
Аудио #4
Идентификатор : 5
Формат : AC-3
Формат/Информация : Audio Coding 3
Расширение режима : CM (complete main)
Параметр Endianness формата : Big
Идентификатор кодека : A_AC3
Продолжительность : 1 ч. 56 м.
Вид битрейта : Постоянный
Битрейт : 640 Кбит/сек
Каналы : 6 каналов
Расположение каналов : Front: L C R, Side: L R, LFE
Частота : 48,0 КГц
Частота кадров : 31,250 кадров/сек (1536 spf)
Метод сжатия : С потерями
Размер потока : 534 Мбайт (7%)
Заголовок : AVO (Василий Горчаков)
Язык : Russian
Default : Нет
Forced : Нет
Аудио #5
Идентификатор : 6
Формат : AC-3
Формат/Информация : Audio Coding 3
Расширение режима : CM (complete main)
Параметр Endianness формата : Big
Идентификатор кодека : A_AC3
Продолжительность : 1 ч. 56 м.
Вид битрейта : Постоянный
Битрейт : 448 Кбит/сек
Каналы : 6 каналов
Расположение каналов : Front: L C R, Side: L R, LFE
Частота : 48,0 КГц
Частота кадров : 31,250 кадров/сек (1536 spf)
Метод сжатия : С потерями
Размер потока : 374 Мбайт (5%)
Заголовок : AVO (Юрий Живов)
Язык : Russian
Default : Нет
Forced : Нет
Аудио #6
Идентификатор : 7
Формат : AC-3
Формат/Информация : Audio Coding 3
Расширение режима : CM (complete main)
Параметр Endianness формата : Big
Идентификатор кодека : A_AC3
Продолжительность : 1 ч. 56 м.
Вид битрейта : Постоянный
Битрейт : 448 Кбит/сек
Каналы : 6 каналов
Расположение каналов : Front: L C R, Side: L R, LFE
Частота : 48,0 КГц
Частота кадров : 31,250 кадров/сек (1536 spf)
Метод сжатия : С потерями
Размер потока : 374 Мбайт (5%)
Заголовок : AVO (Михаил Яроцкий (Киберпанк))
Язык : Russian
Default : Нет
Forced : Нет
Аудио #7
Идентификатор : 8
Формат : AC-3
Формат/Информация : Audio Coding 3
Расширение режима : CM (complete main)
Параметр Endianness формата : Big
Идентификатор кодека : A_AC3
Продолжительность : 1 ч. 56 м.
Вид битрейта : Постоянный
Битрейт : 448 Кбит/сек
Каналы : 6 каналов
Расположение каналов : Front: L C R, Side: L R, LFE
Частота : 48,0 КГц
Частота кадров : 31,250 кадров/сек (1536 spf)
Метод сжатия : С потерями
Размер потока : 374 Мбайт (5%)
Заголовок : Original
Язык : English
Default : Нет
Forced : Нет
Текст #1
Идентификатор : 9
Формат : UTF-8
Идентификатор кодека : S_TEXT/UTF8
Идентификатор кодека/Информация : UTF-8 Plain Text
Продолжительность : 22 м.
Битрейт : 3 бит/сек
Count of elements : 15
Размер потока : 606 байт (0%)
Заголовок : русский (forsed)
Язык : Russian
Default : Да
Forced : Да
Текст #2
Идентификатор : 10
Формат : UTF-8
Идентификатор кодека : S_TEXT/UTF8
Идентификатор кодека/Информация : UTF-8 Plain Text
Продолжительность : 1 ч. 52 м.
Битрейт : 46 бит/сек
Count of elements : 733
Размер потока : 38,3 Кбайт (0%)
Заголовок : русский
Язык : Russian
Default : Нет
Forced : Нет
Текст #3
Идентификатор : 11
Формат : UTF-8
Идентификатор кодека : S_TEXT/UTF8
Идентификатор кодека/Информация : UTF-8 Plain Text
Продолжительность : 1 ч. 54 м.
Битрейт : 27 бит/сек
Count of elements : 735
Размер потока : 22,8 Кбайт (0%)
Заголовок : английский
Default : Нет
Forced : Нет

Скриншоты





Последний раз редактировалось: dmitrijj1962 (2016-02-17 14:06), всего редактировалось 1 раз

Создавать темы 17-Фев-2016 13:31

[Профиль]  [ЛС] 

Топик был перенесен из форума Фильмы до 2010 в форум HD-AVC
ruhal

Создавать темы 17-Фев-2016 14:08

 

ruhal

Стаж: 2 года 4 месяца

Сообщений: 1182

Симпатии: 1836

Спасибо за эпичный релиз! aa
P.S Подправил его немного

Создавать темы 17-Фев-2016 14:11

[Профиль]  [ЛС] 
Показать сообщения:    
Ответить на тему

Текущее время: 20-Авг 16:38

Часовой пояс: UTC + 5



Вы не можете начинать темы
Вы не можете отвечать на сообщения
Вы не можете редактировать свои сообщения
Вы не можете удалять свои сообщения
Вы не можете голосовать в опросах
Вы не можете прикреплять файлы к сообщениям
Вы не можете скачивать файлы