Телохранитель / Maryland (Алис Винокур / Alice Winocour) [2015 г., триллер, драма, HDRip] [iTunes]

Ответить на тему
 

Next_1 ®

Стаж: 4 года

Сообщений: 32

Симпатии: 53

ТелохранительMaryland- Год выпуска: 2015
Страна: Франция, Бельгия
Жанр: триллер, драма
Продолжительность: 01:38:12
Перевод: Профессиональный многоголосый [iTunes]-Режиссер: Алис Винокур / Alice Winocour
В ролях: Маттиас Шонартс, Дайан Крюгер, Поль Ами, Zaïd Errougui-Demonsant, Перси Кемп, Виктор Понтекорво, Майкл Даубер, Франк Торресильяс, Чемс Эддин, Филипп Хаддад, Жан-Луи Куллок, Хьюберт Ролле-Описание: Винсент нанимается телохранителем к жене очень богатого человека. Его неодолимо влечет к ней, и первоначальная антипатия перерастает в любовь. Сможет ли он спасти любимую?-IMDb: 6.20 (635)
КиноПоиск: 5.542 (886)-Качество: HDRip
Формат: AVI
Видео: XviD, 720x384, ~1727 kbps, 23,976 fps
Аудио: AC3, 48 kHz, 384 kbps, 6 ch-

MediaInfo

General
Complete name : E:\Торрент\Фильмы и видео\Удалить при необходимости\TeL0XPaHytel.2015.P.HDRip.1.46GB.avi
Format : AVI
Format/Info : Audio Video Interleave
File size : 1.46 GiB
Duration : 1h 38mn
Overall bit rate : 2 121 Kbps
Writing application : VirtualDubMod 1.5.10.2 (build 2540/release)
Writing library : VirtualDubMod build 2540/release
Video
ID : 0
Format : MPEG-4 Visual
Format profile : Advanced [email protected]
Format settings, BVOP : 2
Format settings, QPel : No
Format settings, GMC : No warppoints
Format settings, Matrix : Default (MPEG)
Codec ID : XVID
Codec ID/Hint : XviD
Duration : 1h 38mn
Bit rate : 1 728 Kbps
Width : 720 pixels
Height : 384 pixels
Display aspect ratio : 1.85:1
Frame rate : 23.976 (24000/1001) fps
Color space : YUV
Chroma subsampling : 4:2:0
Bit depth : 8 bits
Scan type : Progressive
Compression mode : Lossy
Bits/(Pixel*Frame) : 0.261
Stream size : 1.19 GiB (81%)
Writing library : XviD 1.2.1 (UTC 2008-12-04)
Audio
ID : 1
Format : AC-3
Format/Info : Audio Coding 3
Mode extension : CM (complete main)
Format settings, Endianness : Big
Codec ID : 2000
Duration : 1h 38mn
Bit rate mode : Constant
Bit rate : 384 Kbps
Channel(s) : 6 channels
Channel positions : Front: L C R, Side: L R, LFE
Sampling rate : 48.0 KHz
Frame rate : 31.250 fps (1536 spf)
Compression mode : Lossy
Stream size : 270 MiB (18%)
Alignment : Split accross interleaves
Interleave, duration : 42 ms (1.00 video frame)
Interleave, preload duration : 500 ms
-

Скриншоты





Последний раз редактировалось: Next_1 (2016-02-17 18:12), всего редактировалось 1 раз

Создавать темы 17-Фев-2016 16:25

[Профиль]  [ЛС] 

Топик был перенесен из форума HD-AVC в форум Фильмы за 2015
ruhal

Создавать темы 17-Фев-2016 18:12

 

nokiia

Стаж: 6 лет 5 месяцев

Сообщений: 52

Симпатии: 1

очень унылое кино, зря потратите время

Создавать темы 29-Фев-2016 22:08

[Профиль]  [ЛС] 
Показать сообщения:    
Ответить на тему

Текущее время: 23-Окт 07:45

Часовой пояс: UTC + 5



Вы не можете начинать темы
Вы не можете отвечать на сообщения
Вы не можете редактировать свои сообщения
Вы не можете удалять свои сообщения
Вы не можете голосовать в опросах
Вы не можете прикреплять файлы к сообщениям
Вы не можете скачивать файлы