Влюбить и обезвредить (Любовь в розыске) (Анарио Мамедов) [2015 г., комедия, WEB-DLRip]

Ответить на тему
 

Next_1 ®

Стаж: 4 года

Сообщений: 32

Симпатии: 53

Влюбить и обезвредить / Любовь в розыске- Год выпуска: 2015
Страна: Россия
Жанр: комедия
Продолжительность: 01:49:18
Перевод: Не требуется-Режиссер: Анарио Мамедов-В ролях: Анастасия Панина, Роман Полянский, Вадим Андреев, Максим Битюков, Анна Пескова, Антон Шурцов, Андрей Бутин, Вячеслав Хархота, Юлия Подозерова, Юлия Жигалина-Описание: Отчаявшись устроить личное счастье сотрудник полиции Анна в шутку составляет фоторобот мужчины своей мечты. По ошибке изображение попадает в базу розыска преступников и теперь все уверены, что именно так выглядит загадочный вор, которого боятся во всех ювелирных города. Безобидный программист Саша, поразительно похожий на фантазию Анны, приходит в магазин за обручальными кольцами для своей свадьбы и тут же оказывается в наручниках. В полиции быстро выясняют правду, но решают до поры до времени скрыть ее от Саши. Анне поручают присматривать за парнем, чтобы «на живца» поймать не только настоящего вора, но и опасных бандитов, гоняющихся за ним. Вот только хладнокровно следовать профессиональному долгу, сутками находясь рядом с самым желанным мужчиной, оказывается совсем непросто.-Качество: WEB-DLRip
Формат: AVI
Видео: xvid, 720x384, ~1696 kbps, 25 fps
Аудио: AC3, 48 kHz, 192 kbps, 2 ch-

MediaInfo

General
Complete name : E:\Торрент\Фильмы и видео\Удалить при необходимости\Lubov v roziske (2015) WEB-DLRip.avi
Format : AVI
Format/Info : Audio Video Interleave
Format profile : OpenDML
File size : 1.45 GiB
Duration : 1h 49mn
Overall bit rate : 1 901 Kbps
Movie name : Влюбить и обезвредить (2015) [BLUEBIRD]
Writing application : XviD4PSP 6.0 / 54.29.105
Video
ID : 0
Format : xvid
Codec ID : xvid
Duration : 1h 49mn
Bit rate : 1 697 Kbps
Width : 720 pixels
Height : 384 pixels
Display aspect ratio : 1.893
Frame rate : 25.000 fps
Scan type : Progressive
Bits/(Pixel*Frame) : 0.245
Stream size : 1.30 GiB (89%)
Title : FLL_N_LV_NTRLZ_2015_WEB-DL_1080P -BLUEBIRD
Audio
ID : 1
Format : AC-3
Format/Info : Audio Coding 3
Mode extension : CM (complete main)
Format settings, Endianness : Big
Codec ID : 2000
Duration : 1h 49mn
Bit rate mode : Constant
Bit rate : 192 Kbps
Channel(s) : 2 channels
Channel positions : Front: L R
Sampling rate : 48.0 KHz
Frame rate : 31.250 fps (1536 spf)
Bit depth : 16 bits
Compression mode : Lossy
Stream size : 150 MiB (10%)
Alignment : Aligned on interleaves
Interleave, duration : 32 ms (0.80 video frame)
Title : iTUNES
-

Скриншоты





Последний раз редактировалось: Next_1 (2016-02-17 19:09), всего редактировалось 1 раз

Создавать темы 17-Фев-2016 16:57

[Профиль]  [ЛС] 

abuz85

Стаж: 8 лет 9 месяцев

Сообщений: 109

Симпатии: 80

Влюбить и обезвредить / Любовь в розыске (Анарио Мамедов) [2015 г., комедия, WEB-DLRip]

Влюбить и обезвредить / Любовь в розыске- Год выпуска: 2015
Страна: Россия
Жанр: комедия
Продолжительность: 01:49:18
Перевод: Не требуется-Режиссер: Анарио Мамедов
В ролях: Анастасия Панина, Роман Полянский, Вадим Андреев, Максим Битюков, Анна Пескова, Антон Шурцов, Андрей Бутин, Вячеслав Хархота, Юлия Подозерова, Юлия Жигалина, Руслан Корнеков, Стэфания Заровная-Описание: Отчаявшись устроить личное счастье сотрудник полиции Анна в шутку составляет фоторобот мужчины своей мечты. По ошибке изображение попадает в базу розыска преступников и теперь все уверены, что именно так выглядит загадочный вор, которого боятся во всех ювелирных города. Безобидный программист Саша, поразительно похожий на фантазию Анны, приходит в магазин за обручальными кольцами для своей свадьбы и тут же оказывается в наручниках. В полиции быстро выясняют правду, но решают до поры до времени скрыть ее от Саши. Анне поручают присматривать за парнем, чтобы «на живца» поймать не только настоящего вора, но и опасных бандитов, гоняющихся за ним. Вот только хладнокровно следовать профессиональному долгу, сутками находясь рядом с самым желанным мужчиной, оказывается совсем непросто.-КиноПоиск: 6.653 (158)-

Создавать темы 17-Фев-2016 18:19

[Профиль]  [ЛС] 

Next_1 ®

Стаж: 4 года

Сообщений: 32

Симпатии: 53

Спс модератор за исправление

Создавать темы 17-Фев-2016 21:02

[Профиль]  [ЛС] 

orlando

Стаж: 3 года 10 месяцев

Сообщений: 4

Симпатии: 2

Это ж Таня из Физрука

Создавать темы 17-Фев-2016 21:37

[Профиль]  [ЛС] 

Next_1 ®

Стаж: 4 года

Сообщений: 32

Симпатии: 53

У кого проблема со скачиванием установите тередо, должно помочь... Отдача у меня 50мбит/сек, если низкая скорость скачивания, то проблема у вас

Создавать темы 17-Фев-2016 22:07

[Профиль]  [ЛС] 

Black_Sun

Стаж: 5 лет 6 месяцев

Сообщений: 102

Симпатии: 2

50мбит/секне фига се

Создавать темы 18-Фев-2016 05:26

[Профиль]  [ЛС] 
Показать сообщения:    
Ответить на тему

Текущее время: 22-Окт 04:23

Часовой пояс: UTC + 5



Вы не можете начинать темы
Вы не можете отвечать на сообщения
Вы не можете редактировать свои сообщения
Вы не можете удалять свои сообщения
Вы не можете голосовать в опросах
Вы не можете прикреплять файлы к сообщениям
Вы не можете скачивать файлы