Комната / Room (Леонард Абрахамсон) [2015, Ирландия, Канада, драма, HDRip] AVO (Doctor Joker) + Original (Eng) +Sub (Rus, Eng)

Ответить на тему
 

lotto ®

Стаж: 7 лет 7 месяцев

Сообщений: 221

Симпатии: 409

Комната / Room
«Love knows no boundaries»
-- Страна: Ирландия, Канада
Жанр: драма
Год выпуска: 2015
Продолжительность: 01:57:38
Перевод: Авторский (одноголосый закадровый) Doctor Joker
Cубтитры: русские, английские
Оригинальная аудиодорожка: английский--Режиссер: Леонард Абрахамсон
В ролях: Бри Ларсон, Джейкоб Тремблэ, Шон Бриджерс, Венди Крюсон, Сэнди МакМастер, Мэтт Гордон, Аманда Бругел, Джо Пинг, Джоан Аллен, Заррин Дарнелл-Мартин--Описание: Девушку по имени Ма похитили, когда она была еще подростком. С тех пор бедняга живет в крохотной комнатке вместе со своим 5-летним сыном Джеком. Мальчик при этом ничего кроме этой комнаты не видел, он в ней родился и ни разу ее не покидал.--Доп. информация:
Номинации на Оскар:
Лучший фильм, Лучшая женская роль, Лучший режиссер, Лучший адаптированный сценарий
Награды:
Золотой глобус, 2016 год
Лучшая женская роль (драма) ( Бри Ларсон )

Британская академия, 2016 год
Лучшая женская роль ( Бри Ларсон )

Премия Гильдии актеров, 2016 год
Лучшая женская роль ( Бри Ларсон )
--Качество видео: HDRip
Формат видео: AVI
Видео: Xvid, 720x304, 23.976fps, 1381kbps
Аудио: AC3, 48000Hz, stereo, 192kbps (русский, одноголосый)
Аудио 2: AC3 48000Hz stereo 192kbps (оригинал)
Формат субтитров: softsub (SRT)

MediaInfo

General
Complete name : Room.2015.HDRip.VO.avi
Format : AVI
Format/Info : Audio Video Interleave
File size : 1.46 GiB
Duration : 1h 57mn
Overall bit rate : 1 780 Kbps
Writing application : VirtualDubMod 1.5.10.3 | www.virtualdub-fr.org || (build 2550/release)
Writing library : VirtualDubMod build 2550/release
Video
ID : 0
Format : MPEG-4 Visual
Format profile : Advanced [email protected]
Format settings, BVOP : 1
Format settings, QPel : No
Format settings, GMC : No warppoints
Format settings, Matrix : Custom
Codec ID : XVID
Codec ID/Hint : XviD
Duration : 1h 57mn
Bit rate : 1 381 Kbps
Width : 720 pixels
Height : 304 pixels
Display aspect ratio : 2.35:1
Frame rate : 23.976 (23976/1000) fps
Color space : YUV
Chroma subsampling : 4:2:0
Bit depth : 8 bits
Scan type : Progressive
Compression mode : Lossy
Bits/(Pixel*Frame) : 0.263
Stream size : 1.14 GiB (78%)
Writing library : XviD 67
Audio #1
ID : 1
Format : AC-3
Format/Info : Audio Coding 3
Mode extension : CM (complete main)
Format settings, Endianness : Big
Codec ID : 2000
Duration : 1h 57mn
Bit rate mode : Constant
Bit rate : 192 Kbps
Channel(s) : 2 channels
Channel positions : Front: L R
Sampling rate : 48.0 KHz
Frame rate : 31.250 fps (1536 spf)
Compression mode : Lossy
Stream size : 161 MiB (11%)
Alignment : Split accross interleaves
Interleave, duration : 42 ms (1.00 video frame)
Interleave, preload duration : 500 ms
Audio #2
ID : 2
Format : AC-3
Format/Info : Audio Coding 3
Mode extension : CM (complete main)
Format settings, Endianness : Big
Codec ID : 2000
Duration : 1h 57mn
Bit rate mode : Constant
Bit rate : 192 Kbps
Channel(s) : 2 channels
Channel positions : Front: L R
Sampling rate : 48.0 KHz
Frame rate : 31.250 fps (1536 spf)
Compression mode : Lossy
Stream size : 162 MiB (11%)
Alignment : Split accross interleaves
Interleave, duration : 42 ms (1.00 video frame)
Interleave, preload duration : 500 ms

Скриншот c названием фильма

Скриншоты







Последний раз редактировалось: lotto (2016-02-18 10:54), всего редактировалось 1 раз

Создавать темы 18-Фев-2016 10:33

[Профиль]  [ЛС] 
Показать сообщения:    
Ответить на тему

Текущее время: 21-Авг 07:47

Часовой пояс: UTC + 5



Вы не можете начинать темы
Вы не можете отвечать на сообщения
Вы не можете редактировать свои сообщения
Вы не можете удалять свои сообщения
Вы не можете голосовать в опросах
Вы не можете прикреплять файлы к сообщениям
Вы не можете скачивать файлы