В подземелье я пойду, там красавицу найду! / Dungeon ni Deai o Motomeru no wa Machigatte Iru Darouka: Familia Myth / Danmachi (Ямакава Ёсики) [TV] [13 из 13] [без хардсаба] [RUS(ext), JAP+SUB] [2015 г., фэнтези, романтика, BDRip] [720p]

Ответить на тему
 

FireHowler ®

Стаж: 4 года 5 месяцев

Сообщений: 270

Симпатии: 153

- Год выпуска: 2015
Страна: Япония
Жанр: фэнтези, романтика
Продолжительность: ТВ, 13 эп. по 25 мин.
Выпуск: c 04.04.2015 по 27.06.2015-Перевод:

русские субтитры от Shift & Timecraft & Ambiente (полные/вспомогательные)-Режиссер: Ямакава Ёсики
Студия: J.C. Staff-Описание:
Богам стало скучно, и они сошли в мир, оставив себе минимум атрибутов божественности – бессмертие, предвидение и чуточку силы, чтобы поддерживать своих последователей. Город Орарио, где высится огромный донжон, работает на искателей приключений самых разных рас, которые собираются в кланы, возглавляемые многочисленными богами. Отдельной силой в городе является Гильдия – она и банк, и обменное бюро, и . Боги же навек избавились от скуки: ведь кроме руководства кланом, можно развивать бизнес, творить интриги, отбирать чужие человеческие игрушки – в общем, вести нормальную полноценную жизнь.
Клан Гестии, увы, невелик – сама богиня, принявшая облик юной девы, и молодой Белл, блондин с красными глазами. Когда-то Белл подался в приключенцы, чтобы бегать по уровням, бить монстров и знакомиться с девушками – и цели достиг, влюбившись по уши в Айз, «принцессу мечей» из клана Локи. Пока что герой для своей избранницы явно слабоват, зато у Белла появился повод развиваться, у Гестии – ревновать, у самой Айз – пожимать плечами, а у половины города – активно болеть за молодежь. Это еще ничего, а вот когда в дело вмешивается злокозненная богиня любви Фрейя – становится по-настоящему интересно!
© Hollow, World Art
Информационные ссылки: AniDB || World Art || MAL-Качество: BDRip
Энкод: Winter - RG Pantheon
Тип видео: без хардсаба, без линковки
Формат: mkv
Видео: x264 (Hi10p), 1280x720, ~3200 Kbps, 23.976 fps
Аудио JAP: Vorbis, 48000Hz, ~256 Kbps, 2ch
Аудио RUS 1-4: AC3, 48000Hz, ~192 Kbps, 2ch (внешними файлами)-

Список озвучек в раздаче

двухголосая (муж./жен.) от Absurd & Eladiel (Onibaku)
двухголосая (муж./жен.) от Metacarmex & Say (Anilibria)
двухголосая (муж./жен.) от Soer & Акварелька (Anifilm)
двухголосая (муж./жен.) от Hope & Aska (SHIZA)

Список эпизодов

01. Bell Cranel: Adventurer
02. Monsterphilia: Monster Festival
03. Hestia Knife: The Blade of a God
04. Supporter: The Weak
05. Grimoire: Magic Book
06. Liliruca Arde: Reason
07. Aiz Wallenstein: Sword Princess
08. Argonaut: Wanting to Be a Hero
09. Welf Crozzo: Blacksmith
10. Pass Parade: Procession of Monsters
11. Under Resort: Labyrinth Utopia
12. Show: Evil Intentions
13. Familia Myth: The Story of a Familia

Подробные тех. данные

Video
ID : 1
Format : AVC
Format/Info : Advanced Video Codec
Format profile : High 10@L4.1
Format settings, CABAC : Yes
Format settings, ReFrames : 9 frames
Codec ID : V_MPEG4/ISO/AVC
Duration : 23mn 42s
Bit rate : 3 316 Kbps
Width : 1 280 pixels
Height : 720 pixels
Display aspect ratio : 16:9
Frame rate mode : Constant
Frame rate : 23.976 fps
Color space : YUV
Chroma subsampling : 4:2:0
Bit depth : 10 bits
Scan type : Progressive
Bits/(Pixel*Frame) : 0.150
Stream size : 562 MiB (91%)
Writing library : x264 core 132 r2309 3b1f1f7
Encoding settings : cabac=1 / ref=9 / deblock=1:-2:-2 / analyse=0x3:0x133 / me=umh / subme=9 / psy=1 / psy_rd=0.90:0.00 / mixed_ref=1 / me_range=24 / chroma_me=1 / trellis=2 / 8x8dct=1 / cqm=0 / deadzone=21,11 / fast_pskip=1 / chroma_qp_offset=-2 / threads=12 / lookahead_threads=2 / sliced_threads=0 / nr=0 / decimate=0 / interlaced=0 / bluray_compat=0 / constrained_intra=0 / bframes=8 / b_pyramid=2 / b_adapt=2 / b_bias=0 / direct=1 / weightb=1 / open_gop=0 / weightp=2 / keyint=250 / keyint_min=23 / scenecut=40 / intra_refresh=0 / rc=crf / mbtree=0 / crf=15.6 / qcomp=0.70 / qpmin=9 / qpmax=40 / qpstep=4 / ip_ratio=1.40 / pb_ratio=1.30 / aq=1:0.90
Default : No
Forced : No
Audio
ID : 2
Format : Vorbis
Format settings, Floor : 1
Codec ID : A_VORBIS
Duration : 23mn 42s
Bit rate mode : Variable
Bit rate : 256 Kbps
Channel(s) : 2 channels
Sampling rate : 48.0 KHz
Compression mode : Lossy
Stream size : 43.4 MiB (7%)
Writing library : libVorbis (Schaufenugget) (20101101 (Schaufenugget))
Language : Japanese
Default : Yes
Forced : No
-

Скриншоты

Создавать темы 20-Фев-2016 09:32

[Профиль]  [ЛС] 

Азиз87

Стаж: 4 года 11 месяцев

Сообщений: 752

Симпатии: 143

Сразу вспоминается этот клип Baka Oppai – Hestiastep ay

Создавать темы 20-Фев-2016 21:00

[Профиль]  [ЛС] 

daniellya

Стаж: 5 лет 6 месяцев

Сообщений: 338

Симпатии: 29

Анцез и дополнительные сцены появились в БДшке? :3

Создавать темы 20-Фев-2016 22:59

[Профиль]  [ЛС] 

john titor

Стаж: 2 года 6 месяцев

Сообщений: 42

Симпатии: 5

какая озвучка хорошая?

Комментарий от Азиз87


от Absurd & Eladiel (Onibaku) хороша, также и от Soer & Акварелька (Anifilm)

Создавать темы 10-Мар-2016 19:03

[Профиль]  [ЛС] 
Показать сообщения:    
Ответить на тему

Текущее время: 23-Окт 09:18

Часовой пояс: UTC + 5



Вы не можете начинать темы
Вы не можете отвечать на сообщения
Вы не можете редактировать свои сообщения
Вы не можете удалять свои сообщения
Вы не можете голосовать в опросах
Вы не можете прикреплять файлы к сообщениям
Вы не можете скачивать файлы