Тёмная паутина / Darkweb (Бруно Вассенат) [2016, Франция, Боевик, триллер, HDRip] (VO: Васька Куролесов)

Ответить на тему
 

ruhal ®

Стаж: 2 года 4 месяца

Сообщений: 1182

Симпатии: 1836

- -Тёмная паутина / Darkweb
- -Страна: Франция
Жанр: Боевик, триллер
Год выпуска: 2016
Продолжительность: 01:29:39-Перевод: Любительский (одноголосый) Васька Куролесов
Cубтитры: нет-Режиссер: Бруно Вассенат-В ролях: Оливье Грюнер, Дэнни Гловер, Тони Харрисон, Ибрахима Кейта, Винсент Паризи, Тристан Робин-Описание: Оказывается кроме хорошо знакомого нам интернета существует огромная паутина,
где вертятся огромные деньги и идет своя жизнь. Слышали ли вы о Тёмной паутине? Это сетевые сегменты,
вообще не подключённые к сети Интернет... Таинственные люди создали садистскую группу,
похищая молодых девушек для участия в охоте на индюшек в качестве добычи, при этом они снимают всё на видео.
Миллионеры, жаждущие крови, должны купить право на просмотр в темной паутине. Каков же исход охоты?-Качество видео: HDRip
Формат видео: AVI
Видео: Xvid 720x304 24fps 1829kbps
Аудио: Dolby AC3 48000Hz 6ch 384kbps
-

MediaInfo

General
Complete name : E:\Films\Darkweb.2016.HDRip_KypoJIecoB.avi
Format : AVI
Format/Info : Audio Video Interleave
File size : 1.39 GiB
Duration : 1h 29mn
Overall bit rate : 2 223 Kbps
Video
ID : 0
Format : MPEG-4 Visual
Format profile : Advanced [email protected]
Format settings, BVOP : 2
Format settings, QPel : No
Format settings, GMC : No warppoints
Format settings, Matrix : Default (H.263)
Codec ID : XVID
Codec ID/Hint : XviD
Duration : 1h 29mn
Bit rate : 1 830 Kbps
Width : 720 pixels
Height : 304 pixels
Display aspect ratio : 2.35:1
Frame rate : 24.000 fps
Color space : YUV
Chroma subsampling : 4:2:0
Bit depth : 8 bits
Scan type : Progressive
Compression mode : Lossy
Bits/(Pixel*Frame) : 0.348
Stream size : 1.15 GiB (82%)
Writing library : XviD 66
Audio
ID : 1
Format : AC-3
Format/Info : Audio Coding 3
Mode extension : CM (complete main)
Format settings, Endianness : Big
Codec ID : 2000
Duration : 1h 29mn
Bit rate mode : Constant
Bit rate : 384 Kbps
Channel(s) : 6 channels
Channel positions : Front: L C R, Side: L R, LFE
Sampling rate : 48.0 KHz
Bit depth : 16 bits
Compression mode : Lossy
Stream size : 246 MiB (17%)
Alignment : Split accross interleaves
Interleave, duration : 42 ms (1.00 video frame)
Interleave, preload duration : 500 ms

Скриншот c названием фильма

Скриншоты




Создавать темы 20-Фев-2016 11:19

[Профиль]  [ЛС] 

TronT

Стаж: 6 лет 10 месяцев

Сообщений: 27

Симпатии: 7

ТВ3?

Создавать темы 20-Фев-2016 21:26

[Профиль]  [ЛС] 

shakirovich

Стаж: 1 год 9 месяцев

Сообщений: 1

чо это такое ТВ3

Создавать темы 06-Мар-2016 19:40

[Профиль]  [ЛС] 

axeman

Стаж: 4 года 9 месяцев

Сообщений: 380

Симпатии: 50

неее это тв4

Создавать темы 07-Мар-2016 12:02

[Профиль]  [ЛС] 

YAhh

Стаж: 4 года 6 месяцев

Сообщений: 8

Симпатии: 2

...походу не стоит качать?!

Создавать темы 07-Мар-2016 18:23

[Профиль]  [ЛС] 

idilo

Стаж: 5 лет 6 месяцев

Сообщений: 4

кошмар какой то!!! ужас просто. на х*й просрали фильм

Предупреждение от ruhal


Повежливей Уважаемый

Создавать темы 07-Мар-2016 23:05

[Профиль]  [ЛС] 
Показать сообщения:    
Ответить на тему

Текущее время: 21-Авг 22:55

Часовой пояс: UTC + 5



Вы не можете начинать темы
Вы не можете отвечать на сообщения
Вы не можете редактировать свои сообщения
Вы не можете удалять свои сообщения
Вы не можете голосовать в опросах
Вы не можете прикреплять файлы к сообщениям
Вы не можете скачивать файлы