Статус: Свободен (Павел Руминов) [2015, комедия, мелодрама, WEB-DLRip]

Ответить на тему
 

inkus ®

Стаж: 7 лет 4 месяца

Сообщений: 50

Симпатии: 39

-Статус: Свободен- Жанр: комедия, мелодрама
Год выпуска: 2015
Продолжительность: 01:35:44
Режиссёр: Павел Руминов
В ролях: Данила Козловский, Елизавета Боярская, Владимир Селезнев, Игорь Войнаровский, Наталья Анисимова, Паулина Андреева
Описание: Никита и Афина — идеальная пара… Как палочки Твикс. Как Бред Питт и Анджелина Джоли. Но… только по мнению Никиты. Внезапно Афина сообщает, что уходит от него. Причем — к 40-летнему стоматологу. Никита не согласен с таким поворотом судьбы и обещает Афине, что вернет ее за неделю. Что готов сделать отчаянный стэндапер, чтобы вернуть свою любовь?
Качество видео: WEB-DLRip
Формат видео: AVI
Видео: XviD, 1724 kb/s, 720x304
Аудио: AC3, 384 kb/s (6 ch)

MediaInfo

Общее
Полное имя : F:\1 мои раздачи торент\Ctatyc.CB060deH.2016.O.WEB-DLRip.avi
Формат : AVI
Формат/Информация : Audio Video Interleave
Размер файла : 1,46 Гбайт
Продолжительность : 1 ч. 38 м.
Общий поток : 2117 Кбит/сек
Программа кодирования : VirtualDubMod 1.5.10.3 | www.virtualdub-fr.org || (build 2550/release)
Библиотека кодирования : VirtualDubMod build 2550/release
Видео
Идентификатор : 0
Формат : MPEG-4 Visual
Профиль формата : Advanced [email protected]
Параметр BVOP формата : 2
Параметр QPel формата : Нет
Параметр GMC формата : Без точки перехода
Параметр матрицы формата : Default (MPEG)
Идентификатор кодека : XVID
Идентификатор кодека/Подсказка : XviD
Продолжительность : 1 ч. 38 м.
Битрейт : 1724 Кбит/сек
Ширина : 720 пикселей
Высота : 304 пикселя
Соотношение сторон : 2,35:1
Частота кадров : 24,000 кадра/сек
Цветовое пространство : YUV
Субдискретизация насыщенности : 4:2:0
Битовая глубина : 8 бит
Тип развёртки : Прогрессивная
Метод сжатия : С потерями
Бит/(Пиксели*Кадры) : 0.328
Размер потока : 1,19 Гбайт (81%)
Библиотека кодирования : XviD 1.2.1 (UTC 2008-12-04)
Аудио
Идентификатор : 1
Формат : AC-3
Формат/Информация : Audio Coding 3
Расширение режима : CM (complete main)
Параметр Endianness формата : Big
Идентификатор кодека : 2000
Продолжительность : 1 ч. 38 м.
Вид битрейта : Постоянный
Битрейт : 384 Кбит/сек
Каналы : 6 каналов
Расположение каналов : Front: L C R, Side: L R, LFE
Частота : 48,0 КГц
Битовая глубина : 16 бит
Метод сжатия : С потерями
Размер потока : 271 Мбайт (18%)
Выравнивание : Разделение по промежуткам
Продолжительность промежутка : 42 мс. (1,00 видеокадр)
Время предзагрузки промежутка : 500 мс.

Скриншоты





Последний раз редактировалось: inkus (2016-02-20 12:27), всего редактировалось 1 раз

Создавать темы 20-Фев-2016 12:22

[Профиль]  [ЛС] 

Lirik_Lindow

Стаж: 5 лет

Сообщений: 49

Симпатии: 1

Хорошая картина! Советую к просмотру!

Создавать темы 25-Фев-2016 05:25

[Профиль]  [ЛС] 

pct

Стаж: 6 лет 7 месяцев

Сообщений: 120

Симпатии: 12

Сизьге Боярской не спасли, слабый фильм, не осилил.

Создавать темы 28-Фев-2016 12:14

[Профиль]  [ЛС] 
Показать сообщения:    
Ответить на тему

Текущее время: 20-Сен 21:20

Часовой пояс: UTC + 5



Вы не можете начинать темы
Вы не можете отвечать на сообщения
Вы не можете редактировать свои сообщения
Вы не можете удалять свои сообщения
Вы не можете голосовать в опросах
Вы не можете прикреплять файлы к сообщениям
Вы не можете скачивать файлы