В центре внимания / Spotlight (Том МакКарти) [2015, США, триллер, драма, биография, история, HDRip] [iTunes]

Ответить на тему
 

ruhal ®

Стаж: 2 года 5 месяцев

Сообщений: 1181

Симпатии: 1836

- -В центре внимания / Spotlight
-
Страна: США
Жанр: триллер, драма, биография, история
Год выпуска: 2015
Продолжительность: 02:08:31-Перевод: Профессиональный (многоголосый) [iTunes]
Cубтитры: нет-Режиссер: Том МакКарти-В ролях: Марк Руффало, Майкл Китон, Рэйчел МакАдамс, Лев Шрайбер,
Джон Слэттери, Стэнли Туччи, Брайан Д Арси Джеймс, Елена Стайтелер, Джин Аморозо, Даг Мюррэй-Описание: В основу ленты легло журналистское расследование газеты The Boston Globe.
Целая группа авторов копала под бостонскую митрополию и, в конце концов, отрыла педофильский скандал.
Они сумели доказать, что некоторые священники Бостона приставали к детям,
при этом кардинал и архиепископ городской церкви Бернард Лоу об этом знал и якобы покрывал их.
После публикации скандал разгорался все сильнее и сильнее по принципу цепной реакции, и, в итоге, привел к отставке кардинала Лоу.
Вдобавок, бостонская церковь выплатила миллионы компенсации и закрыла больше полусотни приходов.-Качество видео: HDRip
Формат видео: AVI
Видео: Xvid 720x384 23.976fps 1123kbps
Аудио: Dolby AC3 48000Hz 6ch 384kbps
-

MediaInfo

General
Complete name : E:\Films\B.ceHtPe.BH1maH1Ya.2015..P.HDRip.1400Mb.avi
Format : AVI
Format/Info : Audio Video Interleave
File size : 1.37 GiB
Duration : 2h 9mn
Overall bit rate : 1 516 Kbps
Writing application : VirtualDubMod 1.5.10.2 (build 2540/release)
Writing library : VirtualDubMod build 2540/release
Video
ID : 0
Format : MPEG-4 Visual
Format profile : Advanced [email protected]
Format settings, BVOP : 2
Format settings, QPel : No
Format settings, GMC : No warppoints
Format settings, Matrix : Default (MPEG)
Codec ID : XVID
Codec ID/Hint : XviD
Duration : 2h 9mn
Bit rate : 1 123 Kbps
Width : 720 pixels
Height : 384 pixels
Display aspect ratio : 1.85:1
Frame rate : 23.976 fps
Color space : YUV
Chroma subsampling : 4:2:0
Bit depth : 8 bits
Scan type : Progressive
Compression mode : Lossy
Bits/(Pixel*Frame) : 0.169
Stream size : 1.01 GiB (74%)
Writing library : XviD 1.2.1 (UTC 2008-12-04)
Audio
ID : 1
Format : AC-3
Format/Info : Audio Coding 3
Mode extension : CM (complete main)
Format settings, Endianness : Big
Codec ID : 2000
Duration : 2h 9mn
Bit rate mode : Constant
Bit rate : 384 Kbps
Channel(s) : 6 channels
Channel positions : Front: L C R, Side: L R, LFE
Sampling rate : 48.0 KHz
Bit depth : 16 bits
Compression mode : Lossy
Stream size : 354 MiB (25%)
Alignment : Split accross interleaves
Interleave, duration : 42 ms (1.00 video frame)
Interleave, preload duration : 500 ms

Скриншот c названием фильма

Скриншоты



Создавать темы 21-Фев-2016 12:14

[Профиль]  [ЛС] 

totsamiy

Стаж: 5 лет 3 месяца

Сообщений: 145

Симпатии: 22

а еще у них (в США), считается самым главным дети, но практически все ключевые персоны, на весь этот беспредел, просто закрывали глаза.... я в шоке...

Создавать темы 04-Мар-2016 01:29

[Профиль]  [ЛС] 
Показать сообщения:    
Ответить на тему

Текущее время: 20-Сен 01:49

Часовой пояс: UTC + 5



Вы не можете начинать темы
Вы не можете отвечать на сообщения
Вы не можете редактировать свои сообщения
Вы не можете удалять свои сообщения
Вы не можете голосовать в опросах
Вы не можете прикреплять файлы к сообщениям
Вы не можете скачивать файлы