Лихорадка / Cabin Fever (Трэвис Заривны) [2016, США, ужасы, WEB-DLRip] (VO : Хихикающий доктор)

Ответить на тему
 

mp1988 ®

Стаж: 6 лет 9 месяцев

Сообщений: 607

Симпатии: 971

Лихорадка / Cabin Fever
Страна: США
Жанр: ужасы
Год выпуска: 2016
Продолжительность: 01:38:23
Перевод: Любительский одноголосый - Хихикающий доктор
Cубтитры: нет
Режиссер: Трэвис Заривны
В ролях: Гейдж Голайтли, Мэттью Даддарио, Надин Крокер, Дастин Ингрэм, Сэмюэл Дэвис, Рэнди Шульман, Луиз Линтон, Элай Рот, Тереза Дечер, Лаура Кенни, Джордж Гриффит, Тед Пфайфер, Ричард Дж. Борон
Описание: История о группе из пяти выпускников, которые арендуют удаленный домик в лесу и в результате становятся жертвами ужасного вируса…
Качество видео: WEB-DLRip
Формат видео: AVI
Видео: XviD, 1719 Кбит/сек, 720*304
Аудио : AC3, 192 Кбит/сек (2 канала) - Русский
Аудио : AC3, 192 Кбит/сек (2 канала) - English

MediaInfo

Формат : AVI
Формат/Информация : Audio Video Interleave
Размер файла : 1,46 Гбайт
Продолжительность : 1 ч. 38 м.
Общий поток : 2117 Кбит/сек
Программа кодирования : VirtualDubMod 1.5.10.3 | www.virtualdub-fr.org || (build 2550/release)
Библиотека кодирования : VirtualDubMod build 2550/release
Видео
Идентификатор : 0
Формат : MPEG-4 Visual
Профиль формата : Advanced [email protected]
Параметр BVOP формата : 1
Параметр QPel формата : Нет
Параметр GMC формата : Без точки перехода
Параметр матрицы формата : Выборочная
Идентификатор кодека : XVID
Идентификатор кодека/Подсказка : XviD
Продолжительность : 1 ч. 38 м.
Битрейт : 1719 Кбит/сек
Ширина : 720 пикселей
Высота : 304 пикселя
Соотношение сторон : 2,35:1
Частота кадров : 23,976 кадра/сек
Цветовое пространство : YUV
Субдискретизация насыщенности : 4:2:0
Битовая глубина : 8 бит
Тип развёртки : Прогрессивная
Метод сжатия : С потерями
Бит/(Пиксели*Кадры) : 0.328
Размер потока : 1,18 Гбайт (81%)
Библиотека кодирования : XviD 73
Аудио #1
Идентификатор : 1
Формат : AC-3
Формат/Информация : Audio Coding 3
Расширение режима : CM (complete main)
Параметр Endianness формата : Big
Идентификатор кодека : 2000
Продолжительность : 1 ч. 38 м.
Вид битрейта : Постоянный
Битрейт : 192 Кбит/сек
Каналы : 2 канала
Расположение каналов : Front: L R
Частота : 48,0 КГц
Битовая глубина : 16 бит
Метод сжатия : С потерями
Размер потока : 135 Мбайт (9%)
Выравнивание : Разделение по промежуткам
Продолжительность промежутка : 42 мс. (1,00 видеокадр)
Время предзагрузки промежутка : 500 мс.
Аудио #2
Идентификатор : 2
Формат : AC-3
Формат/Информация : Audio Coding 3
Расширение режима : CM (complete main)
Параметр Endianness формата : Big
Идентификатор кодека : 2000
Продолжительность : 1 ч. 38 м.
Вид битрейта : Постоянный
Битрейт : 192 Кбит/сек
Каналы : 2 канала
Расположение каналов : Front: L R
Частота : 48,0 КГц
Битовая глубина : 16 бит
Метод сжатия : С потерями
Размер потока : 135 Мбайт (9%)
Выравнивание : Разделение по промежуткам
Продолжительность промежутка : 42 мс. (1,00 видеокадр)
Время предзагрузки промежутка : 500 мс.

Скриншоты



Создавать темы 21-Фев-2016 14:21

[Профиль]  [ЛС] 

Reanimated

Стаж: 5 лет 9 месяцев

Сообщений: 24

нормальный фильмец

Создавать темы 13-Мар-2016 16:30

[Профиль]  [ЛС] 
Показать сообщения:    
Ответить на тему

Текущее время: 23-Ноя 12:30

Часовой пояс: UTC + 5



Вы не можете начинать темы
Вы не можете отвечать на сообщения
Вы не можете редактировать свои сообщения
Вы не можете удалять свои сообщения
Вы не можете голосовать в опросах
Вы не можете прикреплять файлы к сообщениям
Вы не можете скачивать файлы