Rammstein - Videos [1995-2012, Neue Deutsche Harte, Industrial Metal, BDRip 1080p]

Ответить на тему
 

kat222000 ®

Стаж: 6 лет 7 месяцев

Сообщений: 608

Симпатии: 1055

Rammstein«Videos (1995-2012)» Информация
Исполнитель: Rammstein
Страна: Германия (Universal Music Group)
Название: Videos (1995-2012)
Год выхода: 2012
Жанр: Neue Deutsche Harte, Industrial Metal
Продолжительность: 01:47:45-Файл
Качество: BDRip 1080p (исходник: Blu-Ray Disc)
Формат: MKV
Видео кодек: AVC
Аудио кодек#1: AC3
Аудио кодек#2: DTS
Видео: V_MPEG4/AVC, 1920x1080 (16:9), 1920x864 (2.22:1), 1440x1080 (4:3) ~ 8 000 - 10 000 Kbps, 24 кадров/сек
Аудио#1: AC3 2.0, 48 kHz, 16-bit, ~ 256 kbps
Аудио#2: DTS 2.0, 48 kHz, 24-bit, ~ 768 - 1536 kbps-"Мы не можем сочинять жизнерадостные песенки, мы считаем, что лучше говорить о некоторых вещах, чем их замалчивать".
Rammstein (год основания январь 1994, Берлин) является одной из самых популярных групп в России и всей Европе.
Её тяжёлые, жёсткие и ритмичные песни взорвали хит-парады девять лет назад, и теперь Rammstein - визитная карточка Германии за рубежом.
Почти все песни группы исполняются на немецком языке. Rammstein также прославились сценическими шоу и эпатажными текстами.

〤 Tрек-лист 〤

01. Du riechst so gut
02. Seemann
03. Rammstein
04. Engel
05. Du hast
06. Du riechst so gut ‘98
07. Stripped
08. Sonne
09. Links 2 3 4
10. Ich will
11. Mutter
12. Feuer frei!
13. Mein Teil
14. Amerika
15. Ohne dich
16. Keine Lust
17. Benzin
18. Rosenrot
19. Mann gegen Mann
20. Pussy
21. Ich tu dir weh
22. Haifisch
23. Mein Land
24. Mein Herz brennt – Piano Version
25. Mein Herz brennt
-

〤 Отчет МедиаИнфо 〤

General
Unique ID : 220931926506667476937390415496582785252
(0xA635F0F89491B1FD80F3A0438623E8E4)
Complete name : 23. Mein Land.mkv
Format : Matroska
Format version : Version 4 / Version 2
File size : 352 MiB
Duration : 4mn 27s
Overall bit rate : 11.0 Mbps
Movie name : V.ATAKy
Encoded date : UTC 2015-04-29 16:08:10
Writing application : mkvmerge v7.3.0 ('Nouages') 64bit built on Oct 22 2014 18:53:34
Video
ID : 1
Format : AVC
Format/Info : Advanced Video Codec
Format profile : [email protected]
Format settings, CABAC : Yes
Format settings, ReFrames : 4 frames
Codec ID : V_MPEG4/ISO/AVC
Duration : 4mn 27s
Bit rate : 9 999 Kbps
Width : 1 920 pixels
Height : 1 080 pixels
Display aspect ratio : 16:9
Frame rate mode : Constant
Frame rate : 24.000 fps
Color space : YUV
Chroma subsampling : 4:2:0
Bit depth : 8 bits
Scan type : Progressive
Bits/(Pixel*Frame) : 0.201
Stream size : 312 MiB (89%)
Title : Mein.Land
Writing library : x264 core 146 r2538M 121396c
Encoding settings : cabac=1 / ref=4 / deblock=1:-3:-3 / analyse=0x3:0x113 / me=umh / subme=11 / psy=1 / psy_rd=1,05:0,10 / mixed_ref=1 / me_range=48 / chroma_me=1 / trellis=2 / 8x8dct=1 / cqm=0 / deadzone=21,11 / fast_pskip=0 / chroma_qp_offset=-3 / threads=6 / lookahead_threads=1 / sliced_threads=0 / nr=0 / decimate=1 / interlaced=0 / bluray_compat=0 / constrained_intra=0 / bframes=4 / b_pyramid=2 / b_adapt=2 / b_bias=0 / direct=3 / weightb=1 / open_gop=0 / weightp=2 / keyint=240 / keyint_min=24 / scenecut=40 / intra_refresh=0 / rc_lookahead=240 / rc=2pass / mbtree=1 / bitrate=9999 / ratetol=1,0 / qcomp=0,70 / qpmin=3 / qpmax=69 / qpstep=4 / cplxblur=20,0 / qblur=0,5 / ip_ratio=1,40 / aq=2:1,00
Language : English
Default : Yes
Forced : No
_STATISTICS_WRITING_APP : mkvmerge v7.3.0 ('Nouages') 64bit built on Oct 22 2014 18:53:34
_STATISTICS_WRITING_DATE_UTC : 2015-04-29 16:08:10
_STATISTICS_TAGS : BPS DURATION NUMBER_OF_FRAMES NUMBER_OF_BYTES
DURATION : 00:04:27.084000000
NUMBER_OF_FRAMES : 6410
NUMBER_OF_BYTES : 334587592
Audio #1
ID : 2
Format : AC-3
Format/Info : Audio Coding 3
Mode extension : CM (complete main)
Format settings, Endianness : Big
Codec ID : A_AC3
Duration : 4mn 27s
Bit rate mode : Constant
Bit rate : 256 Kbps
Channel(s) : 2 channels
Channel positions : Front: L R
Sampling rate : 48.0 KHz
Bit depth : 16 bits
Compression mode : Lossy
Stream size : 8.15 MiB (2%)
Language : German
Default : Yes
Forced : No
Audio #2
ID : 3
Format : DTS
Format/Info : Digital Theater Systems
Mode : 16
Format settings, Endianness : Big
Codec ID : A_DTS
Duration : 4mn 27s
Bit rate mode : Constant
Bit rate : 768 Kbps
Channel(s) : 2 channels
Channel positions : Front: L R
Sampling rate : 48.0 KHz
Bit depth : 24 bits
Compression mode : Lossy
Stream size : 24.5 MiB (7%)
Language : German
Default : No
Forced : No
-

〤 Скриншоты 〤



- © Оформление by kat222000

Создавать темы 21-Фев-2016 22:37

[Профиль]  [ЛС] 

DK-gangam-style-oppa

Стаж: 5 лет

Сообщений: 61

Pussy без цензуры?

Создавать темы 02-Апр-2016 20:06

[Профиль]  [ЛС] 

kat222000 ®

Стаж: 6 лет 7 месяцев

Сообщений: 608

Симпатии: 1055

971396Pussy без цензуры?
Без!

Создавать темы 03-Апр-2016 18:58

[Профиль]  [ЛС] 

IgoreK

Стаж: 7 лет 11 месяцев

Сообщений: 42

РАЗДАЧА БУДЕТ КОГДА-НИБУДЬ

Создавать темы 11-Июл-2016 21:00

[Профиль]  [ЛС] 
Показать сообщения:    
Ответить на тему

Текущее время: 20-Ноя 12:41

Часовой пояс: UTC + 5



Вы не можете начинать темы
Вы не можете отвечать на сообщения
Вы не можете редактировать свои сообщения
Вы не можете удалять свои сообщения
Вы не можете голосовать в опросах
Вы не можете прикреплять файлы к сообщениям
Вы не можете скачивать файлы