Пятьдесят оттенков черного / Fifty Shades of Black (Майкл Тиддес) [2016, США, комедия, WEBRip ] [Чистый звук]

Ответить на тему
 

ruhal ®

Стаж: 2 года 7 месяцев

Сообщений: 1181

Симпатии: 1836

- -Пятьдесят оттенков черного / Fifty Shades of Black- Страна: США
Жанр: комедия
Год выпуска: 2016
Продолжительность: 01:24:45-Перевод: Дублированный [Чистый звук]
Cубтитры: нет-Режиссер: Майкл Тиддес-В ролях: Марлон Уайанс, Кали Хоук, Фред Уиллард, Майк Эппс, Эффион Крокетт,
Джейн Сеймур, Флоренс Хендерсон, Эндрю Бэчелор, Дженни Зигрино, Кейт Лэнг Джонсон-Описание: Неискушенная студентка колледжа знакомится с состоятельным бизнесменом,
чьи сексуальные предпочтения омрачают их отношения.-Качество видео: WEBRip
Формат видео: AVI
Видео: Xvid 720x304 25fps 1920kbps
Аудио: Dolby AC3 48000Hz stereo 384kbps-

MediaInfo

General
Complete name : E:\Films\5O.0T3Hk0B.4epH0G0.2016.D.WEBRip.1400MB.avi
Format : AVI
Format/Info : Audio Video Interleave
File size : 1.37 GiB
Duration : 1h 24mn
Overall bit rate : 2 314 Kbps
Writing application : VirtualDubMod 1.5.10.2 (build 2540/release)
Writing library : VirtualDubMod build 2540/release
Video
ID : 0
Format : MPEG-4 Visual
Format profile : Advanced [email protected]
Format settings, BVOP : 2
Format settings, QPel : No
Format settings, GMC : No warppoints
Format settings, Matrix : Default (MPEG)
Codec ID : XVID
Codec ID/Hint : XviD
Duration : 1h 24mn
Bit rate : 1 921 Kbps
Width : 720 pixels
Height : 304 pixels
Display aspect ratio : 2.35:1
Frame rate : 25.000 fps
Color space : YUV
Chroma subsampling : 4:2:0
Bit depth : 8 bits
Scan type : Progressive
Compression mode : Lossy
Bits/(Pixel*Frame) : 0.351
Stream size : 1.14 GiB (83%)
Writing library : XviD 1.2.1 (UTC 2008-12-04)
Audio
ID : 1
Format : AC-3
Format/Info : Audio Coding 3
Mode extension : CM (complete main)
Format settings, Endianness : Big
Codec ID : 2000
Duration : 1h 24mn
Bit rate mode : Constant
Bit rate : 384 Kbps
Channel(s) : 2 channels
Channel positions : Front: L R
Sampling rate : 48.0 KHz
Bit depth : 16 bits
Compression mode : Lossy
Stream size : 233 MiB (17%)
Alignment : Split accross interleaves
Interleave, duration : 40 ms (1.00 video frame)
Interleave, preload duration : 500 ms

Скриншот c названием фильма

Скриншоты



Создавать темы 22-Фев-2016 06:35

[Профиль]  [ЛС] 

Powered by GMC

Стаж: 2 года

Сообщений: 202

Симпатии: 31

это пародия???

Комментарий от ruhal


Да

Создавать темы 22-Фев-2016 08:25

[Профиль]  [ЛС] 

AbiJan

Стаж: 6 лет 5 месяцев

Сообщений: 80

Симпатии: 12

968141это пародия???
Тот интересный момент, когда пародия от Вайнса будет в разы лучше оригинала!

Создавать темы 24-Фев-2016 22:08

[Профиль]  [ЛС] 
Показать сообщения:    
Ответить на тему

Текущее время: 19-Ноя 13:48

Часовой пояс: UTC + 5



Вы не можете начинать темы
Вы не можете отвечать на сообщения
Вы не можете редактировать свои сообщения
Вы не можете удалять свои сообщения
Вы не можете голосовать в опросах
Вы не можете прикреплять файлы к сообщениям
Вы не можете скачивать файлы